Extras/OVA/[Kosaka] One Punch Man Season 2 Specials - OVA - 05 - Puri Puri Prisoner and the Escaped Prisoners (1080p AV1 10Bit BluRay OPUS) [Dual-Audio] [88514CBA].mkv


File Size80.54 MB (84,452,323 bytes)
DownloadClickNUpload | DailyUploads | DownloadGG | GoFile | KrakenFiles | MdiaLoad | MultiUp
  • BdUpload
  • DownAce
  • Fichier
  • FileCloud
  • Filerio
  • FilesCdn
  • IndiShare
  • Kbagi
  • Turbobit
  • UpToBox
  • Uppit
| Uppit
HashesCRC32: 88514CBA, MD5: 1FF80E255ABEEEC6EFECDF4A1A3358A1, SHA1: BD19BE6C8CB0D420D954A3B250235D84FAA236CD, SHA256: 282A4E15ED2B77E7D46412FE9BA2B9AA339F6FE65F167D197536B3EA3A89156C, ED2K: 93E2D736D877B7738A9968D2CF8C778B
Screenshots
screenshotscreenshotscreenshotscreenshotscreenshot
SubtitlesAll Attachments | Full Subtitles [GJM] [eng, ASS], Signs/Songs [GJM] [eng, ASS]
Additional Info
General
Unique ID                                : 151288549232166255274623980493806288362 (0x71D11D5E598A2AF1080105A9D080BDEA)
Complete name                            : [Kosaka] One Punch Man Season 2 Specials - OVA - 05 - Puri Puri Prisoner and the Escaped Prisoners (1080p AV1 10Bit BluRay OPUS) [Dual-Audio] [88514CBA].mkv
Format                                   : Matroska
Format version                           : Version 4
File size                                : 80.5 MiB
Duration                                 : 12 min 0 s
Overall bit rate                         : 938 kb/s
Frame rate                               : 23.976 FPS
Movie name                               : One Punch Man Season 2 Specials - OVA - 05 - Puri Puri Prisoner and the Escaped Prisoners
Encoded date                             : 2024-01-06 00:23:43 UTC
Writing application                      : Lavf60.16.100
Writing library                          : Lavf60.16.100
ErrorDetectionType                       : Per level 1
Attachments                              : albatross.TTF / arial-Bold.TTF / cityburn.TTF / EncodeSansCondensed-Bold.TTF / EncodeSansSemiCondensedExbd-ExtraBold.TTF / kleinkarpets.TTF / toxia.TTF / XangdaShiny.TTF / GandhiSans-Bold.OTF / GandhiSans-BoldItalic.OTF

Video
ID                                       : 1
Format                                   : AV1
Format/Info                              : AOMedia Video 1
Format profile                           : Main@L4.0
Codec ID                                 : V_AV1
Duration                                 : 12 min 0 s
Bit rate                                 : 698 kb/s
Width                                    : 1 920 pixels
Height                                   : 1 080 pixels
Display aspect ratio                     : 16:9
Frame rate mode                          : Constant
Frame rate                               : 23.976 FPS
Color space                              : YUV
Chroma subsampling                       : 4:2:0
Bit depth                                : 10 bits
Bits/(Pixel*Frame)                       : 0.014
Stream size                              : 59.9 MiB (74%)
Default                                  : Yes
Forced                                   : No
Color range                              : Limited

Audio #1
ID                                       : 2
Format                                   : Opus
Codec ID                                 : A_OPUS
Duration                                 : 12 min 0 s
Bit rate                                 : 95.2 kb/s
Channel(s)                               : 2 channels
Channel layout                           : L R
Sampling rate                            : 48.0 kHz
Frame rate                               : 50.000 FPS (960 SPF)
Bit depth                                : 32 bits
Compression mode                         : Lossy
Stream size                              : 8.17 MiB (10%)
Title                                    : OPUS 2.0
Writing library                          : Lavc60.31.102 libopus
Language                                 : Japanese
Default                                  : Yes
Forced                                   : No

Audio #2
ID                                       : 3
Format                                   : Opus
Codec ID                                 : A_OPUS
Duration                                 : 12 min 0 s
Bit rate                                 : 93.9 kb/s
Channel(s)                               : 2 channels
Channel layout                           : L R
Sampling rate                            : 48.0 kHz
Frame rate                               : 50.000 FPS (960 SPF)
Bit depth                                : 32 bits
Compression mode                         : Lossy
Stream size                              : 8.06 MiB (10%)
Title                                    : OPUS 2.0
Writing library                          : Lavc60.31.102 libopus
Language                                 : English
Default                                  : No
Forced                                   : No

Text #1
ID                                       : 4
Format                                   : ASS
Codec ID                                 : S_TEXT/ASS
Codec ID/Info                            : Advanced Sub Station Alpha
Compression mode                         : Lossless
Title                                    : Full Subtitles [GJM]
Language                                 : English
Default                                  : Yes
Forced                                   : No
Statistics Tags Issue                    : mkvmerge v78.0 ('Running') 64-bit 2024-01-02 14:40:04 / Lavf60.16.100 2024-01-06 00:23:43
FromStats_BitRate                        : 707
FromStats_Duration                       : 00:11:50.690000000
FromStats_FrameCount                     : 443
FromStats_StreamSize                     : 62667

Text #2
ID                                       : 5
Format                                   : ASS
Codec ID                                 : S_TEXT/ASS
Codec ID/Info                            : Advanced Sub Station Alpha
Compression mode                         : Lossless
Title                                    : Signs/Songs [GJM]
Language                                 : English
Default                                  : No
Forced                                   : Yes
Statistics Tags Issue                    : mkvmerge v78.0 ('Running') 64-bit 2024-01-02 14:40:04 / Lavf60.16.100 2024-01-06 00:23:43
FromStats_BitRate                        : 592
FromStats_Duration                       : 00:11:50.690000000
FromStats_FrameCount                     : 270
FromStats_StreamSize                     : 52519

Menu
00:00:00.007                             : Episode
00:10:30.053                             : Ending

Other Files in this Torrent
Extras/OVA/[Kosaka] One Punch Man Season 2 Specials - OVA - 05 - Puri Puri Prisoner and the Escaped Prisoners (1080p AV1 10Bit BluRay OPUS) [Dual-Audio] [88514CBA].mkv
beta
Anime DDL+NZB mirror
Current Time: 18/05/2024 10:39



About/FAQs

Discord