[Kosaka] One Punch Man Season 2 - 01 - Return of the Hero (1080p AV1 10Bit BluRay OPUS) [Dual-Audio] [C4CE5BC4].mkv


File Size168.8 MB (177,051,835 bytes)
DownloadClickNUpload | DailyUploads | DownloadGG | GoFile | KrakenFiles | MdiaLoad | MultiUp
  • BdUpload
  • DownAce
  • Fichier
  • FileCloud
  • Filerio
  • FilesCdn
  • IndiShare
  • Kbagi
  • Turbobit
  • UpToBox
  • Uppit
| Uppit
HashesCRC32: C4CE5BC4, MD5: 3513DE4D2B10ABEEA7A100B84CD3FEE3, SHA1: 16DB0F2D9C4CF80717619783E5FDE94E3F851629, SHA256: 5D150D1E9A82917C5738D5CDE1CE00B221FC7BE6278E5D6A562CB20F9408BAD5, ED2K: 9054E78CA0485E796B70AB3AACEDDD0F
Screenshots
screenshotscreenshotscreenshotscreenshotscreenshot
SubtitlesAll Attachments | Full Subtitles [GJM] [eng, ASS], Signs/Songs [GJM] [eng, ASS]
Additional Info
General
Unique ID                                : 138018898685527383832883347757657595912 (0x67D57915ACBCCEBA4974C032C9B1A008)
Complete name                            : [Kosaka] One Punch Man Season 2 - 01 - Return of the Hero (1080p AV1 10Bit BluRay OPUS) [Dual-Audio] [C4CE5BC4].mkv
Format                                   : Matroska
Format version                           : Version 4
File size                                : 169 MiB
Duration                                 : 23 min 50 s
Overall bit rate                         : 990 kb/s
Frame rate                               : 23.976 FPS
Movie name                               : One Punch Man Season 2 - 01 - Return of the Hero
Encoded date                             : 2024-01-04 00:51:23 UTC
Writing application                      : Lavf60.16.100
Writing library                          : Lavf60.16.100
ErrorDetectionType                       : Per level 1
Attachments                              : arial.ttf / aver-Bold.TTF / CocogooseClassicTrialMedium.TTF / franchise-Bold.TTF / JaneRoe-Bold.TTF / KomikaAxis.TTF / makisupa.TTF / MasterBreaker.TTF / OutrunFuture-Bold.TTF / PaladinsLeftalic.TTF / PALADINSLEFTALIC.TTF.TTF / splatch.TTF / XangdaShiny.TTF / AgileSans.OTF / AwesomeSauceDemo.OTF / GandhiSans-Bold.OTF / GandhiSans-BoldItalic.OTF / HandBoys.OTF / malvie.OTF / PeunaBrush.OTF / willump-Black.OTF

Video
ID                                       : 1
Format                                   : AV1
Format/Info                              : AOMedia Video 1
Format profile                           : Main@L4.0
Codec ID                                 : V_AV1
Duration                                 : 23 min 50 s
Bit rate                                 : 711 kb/s
Width                                    : 1 920 pixels
Height                                   : 1 080 pixels
Display aspect ratio                     : 16:9
Frame rate mode                          : Constant
Frame rate                               : 23.976 FPS
Color space                              : YUV
Chroma subsampling                       : 4:2:0
Bit depth                                : 10 bits
Bits/(Pixel*Frame)                       : 0.014
Stream size                              : 121 MiB (72%)
Default                                  : Yes
Forced                                   : No
Color range                              : Limited

Audio #1
ID                                       : 2
Format                                   : Opus
Codec ID                                 : A_OPUS
Duration                                 : 23 min 50 s
Bit rate                                 : 95.8 kb/s
Channel(s)                               : 2 channels
Channel layout                           : L R
Sampling rate                            : 48.0 kHz
Frame rate                               : 50.000 FPS (960 SPF)
Bit depth                                : 32 bits
Compression mode                         : Lossy
Stream size                              : 16.3 MiB (10%)
Title                                    : OPUS 2.0
Writing library                          : Lavc60.31.102 libopus
Language                                 : Japanese
Default                                  : Yes
Forced                                   : No

Audio #2
ID                                       : 3
Format                                   : Opus
Codec ID                                 : A_OPUS
Duration                                 : 23 min 50 s
Bit rate                                 : 95.0 kb/s
Channel(s)                               : 2 channels
Channel layout                           : L R
Sampling rate                            : 48.0 kHz
Frame rate                               : 50.000 FPS (960 SPF)
Bit depth                                : 32 bits
Compression mode                         : Lossy
Stream size                              : 16.2 MiB (10%)
Title                                    : OPUS 2.0
Writing library                          : Lavc60.31.102 libopus
Language                                 : English
Default                                  : No
Forced                                   : No

Text #1
ID                                       : 4
Format                                   : ASS
Codec ID                                 : S_TEXT/ASS
Codec ID/Info                            : Advanced Sub Station Alpha
Compression mode                         : Lossless
Title                                    : Full Subtitles [GJM]
Language                                 : English
Default                                  : Yes
Forced                                   : No
Statistics Tags Issue                    : mkvmerge v78.0 ('Running') 64-bit 2024-01-02 13:45:01 / Lavf60.16.100 2024-01-04 00:51:23
FromStats_BitRate                        : 29079
FromStats_Duration                       : 00:23:50.030000000
FromStats_FrameCount                     : 24468
FromStats_StreamSize                     : 5182031

Text #2
ID                                       : 5
Format                                   : ASS
Codec ID                                 : S_TEXT/ASS
Codec ID/Info                            : Advanced Sub Station Alpha
Compression mode                         : Lossless
Title                                    : Signs/Songs [GJM]
Language                                 : English
Default                                  : No
Forced                                   : Yes
Statistics Tags Issue                    : mkvmerge v78.0 ('Running') 64-bit 2024-01-02 13:45:01 / Lavf60.16.100 2024-01-04 00:51:23
FromStats_BitRate                        : 29086
FromStats_Duration                       : 00:23:50.030000000
FromStats_FrameCount                     : 24038
FromStats_StreamSize                     : 5153748

Menu
00:00:00.007                             : Prologue
00:02:50.052                             : Part A
00:15:43.032                             : Part B
00:22:01.077                             : Ending
00:23:31.042                             : Epilogue
00:23:45.056                             : Preview

Other Files in this Torrent
[Kosaka] One Punch Man Season 2 - 01 - Return of the Hero (1080p AV1 10Bit BluRay OPUS) [Dual-Audio] [C4CE5BC4].mkv
beta
Anime DDL+NZB mirror
Current Time: 20/05/2024 21:31



About/FAQs

Discord