Extras/OVA/[Kosaka] One Punch Man Season 2 Specials - OVA - 04 - Games and Rivals (1080p AV1 10Bit BluRay OPUS) [Dual-Audio] [C330903C].mkv


File Size153.2 MB (160,591,103 bytes)
DownloadClickNUpload | DailyUploads | DownloadGG | GoFile | KrakenFiles | MdiaLoad | MultiUp
  • BdUpload
  • DownAce
  • Fichier
  • FileCloud
  • Filerio
  • FilesCdn
  • IndiShare
  • Kbagi
  • Turbobit
  • UpToBox
  • Uppit
| Uppit
HashesCRC32: C330903C, MD5: 93822B896107A313092619B71614C178, SHA1: 9338D58F20C2817D2C95A78321D6C427DF946A92, SHA256: E92C8EF069069AD2C1DCD67B4DB03C1709617F8896D18C722121B9C48D974299, ED2K: 400E8D469036F80AE2AA78A3DC97268F
Screenshots
screenshotscreenshotscreenshotscreenshotscreenshot
SubtitlesAll Attachments | Full Subtitles [GJM] [eng, ASS], Signs/Songs [GJM] [eng, ASS]
Additional Info
General
Unique ID                                : 318471942133870374144073324104334138258 (0xEF977708F28F4799521FBC76FC4F5B92)
Complete name                            : [Kosaka] One Punch Man Season 2 Specials - OVA - 04 - Games and Rivals (1080p AV1 10Bit BluRay OPUS) [Dual-Audio] [C330903C].mkv
Format                                   : Matroska
Format version                           : Version 4
File size                                : 153 MiB
Duration                                 : 12 min 0 s
Overall bit rate                         : 1 784 kb/s
Frame rate                               : 23.976 FPS
Movie name                               : One Punch Man Season 2 Specials - OVA - 04 - Games and Rivals
Encoded date                             : 2024-01-05 23:54:18 UTC
Writing application                      : Lavf60.16.100
Writing library                          : Lavf60.16.100
ErrorDetectionType                       : Per level 1
Attachments                              : albatross.TTF / AracneRegular.TTF / arial-Bold.TTF / aver-Bold.TTF / aver.TTF / calistoga.TTF / GrungeStrokes01.TTF / kleinkarpets.TTF / poppins-Bold.TTF / PoppinsExtrabold-ExtraBold.TTF / splatter.TTF / XangdaShiny.TTF / GandhiSans-Bold.OTF / GandhiSans-BoldItalic.OTF / WcRhesusBBta.OTF / YozakuraJp-Medium.OTF

Video
ID                                       : 1
Format                                   : AV1
Format/Info                              : AOMedia Video 1
Format profile                           : Main@L4.0
Codec ID                                 : V_AV1
Duration                                 : 12 min 0 s
Bit rate                                 : 1 151 kb/s
Width                                    : 1 920 pixels
Height                                   : 1 080 pixels
Display aspect ratio                     : 16:9
Frame rate mode                          : Constant
Frame rate                               : 23.976 FPS
Color space                              : YUV
Chroma subsampling                       : 4:2:0
Bit depth                                : 10 bits
Bits/(Pixel*Frame)                       : 0.023
Stream size                              : 98.8 MiB (65%)
Default                                  : Yes
Forced                                   : No
Color range                              : Limited

Audio #1
ID                                       : 2
Format                                   : Opus
Codec ID                                 : A_OPUS
Duration                                 : 12 min 0 s
Bit rate                                 : 97.8 kb/s
Channel(s)                               : 2 channels
Channel layout                           : L R
Sampling rate                            : 48.0 kHz
Frame rate                               : 49.999 FPS (960 SPF)
Bit depth                                : 32 bits
Compression mode                         : Lossy
Stream size                              : 8.39 MiB (5%)
Title                                    : OPUS 2.0
Writing library                          : Lavc60.31.102 libopus
Language                                 : Japanese
Default                                  : Yes
Forced                                   : No

Audio #2
ID                                       : 3
Format                                   : Opus
Codec ID                                 : A_OPUS
Duration                                 : 12 min 0 s
Bit rate                                 : 96.3 kb/s
Channel(s)                               : 2 channels
Channel layout                           : L R
Sampling rate                            : 48.0 kHz
Frame rate                               : 49.999 FPS (960 SPF)
Bit depth                                : 32 bits
Compression mode                         : Lossy
Stream size                              : 8.27 MiB (5%)
Title                                    : OPUS 2.0
Writing library                          : Lavc60.31.102 libopus
Language                                 : English
Default                                  : No
Forced                                   : No

Text #1
ID                                       : 4
Format                                   : ASS
Codec ID                                 : S_TEXT/ASS
Codec ID/Info                            : Advanced Sub Station Alpha
Compression mode                         : Lossless
Title                                    : Full Subtitles [GJM]
Language                                 : English
Default                                  : Yes
Forced                                   : No
Statistics Tags Issue                    : mkvmerge v78.0 ('Running') 64-bit 2024-01-02 14:39:59 / Lavf60.16.100 2024-01-05 23:54:18
FromStats_BitRate                        : 187260
FromStats_Duration                       : 00:11:50.690000000
FromStats_FrameCount                     : 19914
FromStats_StreamSize                     : 16634092

Text #2
ID                                       : 5
Format                                   : ASS
Codec ID                                 : S_TEXT/ASS
Codec ID/Info                            : Advanced Sub Station Alpha
Compression mode                         : Lossless
Title                                    : Signs/Songs [GJM]
Language                                 : English
Default                                  : No
Forced                                   : Yes
Statistics Tags Issue                    : mkvmerge v78.0 ('Running') 64-bit 2024-01-02 14:39:59 / Lavf60.16.100 2024-01-05 23:54:18
FromStats_BitRate                        : 187133
FromStats_Duration                       : 00:11:50.690000000
FromStats_FrameCount                     : 19727
FromStats_StreamSize                     : 16622814

Menu
00:00:00.007                             : Episode
00:10:30.053                             : Ending

Other Files in this Torrent
Extras/OVA/[Kosaka] One Punch Man Season 2 Specials - OVA - 04 - Games and Rivals (1080p AV1 10Bit BluRay OPUS) [Dual-Audio] [C330903C].mkv
beta
Anime DDL+NZB mirror
Current Time: 20/05/2024 22:41



About/FAQs

Discord