Extras/NC/[Kosaka] One Punch Man Season 2 - NCED 02 (1080p AV1 10Bit BluRay OPUS) [4929ABB0].mkv


File Size17.07 MB (17,901,818 bytes)
DownloadClickNUpload | DailyUploads | DownloadGG | GoFile | KrakenFiles | MdiaLoad | MultiUp
  • BdUpload
  • DownAce
  • Fichier
  • FileCloud
  • Filerio
  • FilesCdn
  • IndiShare
  • Kbagi
  • Turbobit
  • UpToBox
  • Uppit
| Uppit
HashesCRC32: 4929ABB0, MD5: A477672C7EADB4FBFE92DFF0D5F39B88, SHA1: F4A8CA07813DD6F4F77246CFE903BB8D43091BE1, SHA256: 089CB8EBAFF3586BABDE37F35123F191FE396A5640C3F2EE04F4B7D30C08F9A2, ED2K: 8506455FD4B6420CDB4D6904D0BB600D
Screenshots
screenshotscreenshot
SubtitlesAll Attachments | GJM [eng, ASS]
Additional Info
General
Unique ID                                : 258616843209454573313160940739099216862 (0xC28FCAD0A23EF31A6EE20C008349CBDE)
Complete name                            : [Kosaka] One Punch Man Season 2 - NCED 02 (1080p AV1 10Bit BluRay OPUS) [4929ABB0].mkv
Format                                   : Matroska
Format version                           : Version 4
File size                                : 17.1 MiB
Duration                                 : 1 min 30 s
Overall bit rate                         : 1 590 kb/s
Frame rate                               : 23.976 FPS
Encoded date                             : 2024-01-05 21:39:13 UTC
Writing application                      : Lavf60.16.100
Writing library                          : Lavf60.16.100
ErrorDetectionType                       : Per level 1
Attachments                              : ALBATROSS.TTF

Video
ID                                       : 1
Format                                   : AV1
Format/Info                              : AOMedia Video 1
Format profile                           : Main@L4.0
Codec ID                                 : V_AV1
Duration                                 : 1 min 30 s
Bit rate                                 : 1 461 kb/s
Width                                    : 1 920 pixels
Height                                   : 1 080 pixels
Display aspect ratio                     : 16:9
Frame rate mode                          : Constant
Frame rate                               : 23.976 (23976/1000) FPS
Color space                              : YUV
Chroma subsampling                       : 4:2:0
Bit depth                                : 10 bits
Bits/(Pixel*Frame)                       : 0.029
Stream size                              : 15.7 MiB (92%)
Default                                  : Yes
Forced                                   : No
Color range                              : Limited

Audio
ID                                       : 2
Format                                   : Opus
Codec ID                                 : A_OPUS
Duration                                 : 1 min 30 s
Bit rate                                 : 105 kb/s
Channel(s)                               : 2 channels
Channel layout                           : L R
Sampling rate                            : 48.0 kHz
Frame rate                               : 49.996 FPS (960 SPF)
Bit depth                                : 32 bits
Compression mode                         : Lossy
Stream size                              : 1.13 MiB (7%)
Title                                    : OPUS 2.0
Writing library                          : Lavc60.31.102 libopus
Language                                 : Japanese
Default                                  : Yes
Forced                                   : No

Text
ID                                       : 3
Format                                   : ASS
Codec ID                                 : S_TEXT/ASS
Codec ID/Info                            : Advanced Sub Station Alpha
Compression mode                         : Lossless
Title                                    : GJM
Language                                 : English
Default                                  : Yes
Forced                                   : No
Statistics Tags Issue                    : mkvmerge v80.0 ('Roundabout') 64-bit 2024-01-02 13:47:51 / Lavf60.16.100 2024-01-05 21:39:13
FromStats_BitRate                        : 287
FromStats_Duration                       : 00:01:20.600000000
FromStats_FrameCount                     : 26
FromStats_StreamSize                     : 2510

Other Files in this Torrent
Extras/NC/[Kosaka] One Punch Man Season 2 - NCED 02 (1080p AV1 10Bit BluRay OPUS) [4929ABB0].mkv
beta
Anime DDL+NZB mirror
Current Time: 18/05/2024 09:32



About/FAQs

Discord