[Kosaka] One Punch Man Season 2 - 04 - Metal Bat (1080p AV1 10Bit BluRay OPUS) [Dual-Audio] [06DA7227].mkv


File Size203.9 MB (213,809,683 bytes)
DownloadClickNUpload | DailyUploads | DownloadGG | GoFile | KrakenFiles | MdiaLoad | MultiUp
  • BdUpload
  • DownAce
  • Fichier
  • FileCloud
  • Filerio
  • FilesCdn
  • IndiShare
  • Kbagi
  • Turbobit
  • UpToBox
  • Uppit
| Uppit
HashesCRC32: 06DA7227, MD5: FDE3DB1B4AF25BDC50BE0EA49F3E9BD4, SHA1: DDE27CA160C0F5C7F2B6765936957D59358AD497, SHA256: E7DBB15BB00F4DBCB6C44D73511B802D5F43FBEAC411790EDF06A79DCB2A05F3, ED2K: DD1216D1EF8B0C0556A388C1915B8184
Screenshots
screenshotscreenshotscreenshotscreenshotscreenshot
SubtitlesAll Attachments | Full Subtitles [GJM] [eng, ASS], Signs/Songs [GJM] [eng, ASS]
Additional Info
General
Unique ID                                : 253567794474011120797888741036943791206 (0xBEC3617E237CBEAAFE0EB0D024ACD466)
Complete name                            : [Kosaka] One Punch Man Season 2 - 04 - Metal Bat (1080p AV1 10Bit BluRay OPUS) [Dual-Audio] [06DA7227].mkv
Format                                   : Matroska
Format version                           : Version 4
File size                                : 204 MiB
Duration                                 : 23 min 50 s
Overall bit rate                         : 1 196 kb/s
Frame rate                               : 23.976 FPS
Movie name                               : One Punch Man Season 2 - 04 - Metal Bat
Encoded date                             : 2024-01-04 15:54:41 UTC
Writing application                      : Lavf60.16.100
Writing library                          : Lavf60.16.100
ErrorDetectionType                       : Per level 1
Attachments                              : albatross.TTF / arial.ttf / aver-Bold.TTF / aver.TTF / calibri-Bold.ttf / CoinyCyrillic.TTF / DkCinnabarBrush.TTF / EdoSz.TTF / EnjoyTheShow.TTF / franchise-Bold.TTF / JaneRoe-Bold.TTF / MasterBreaker.TTF / OleanderCakes.TTF / toxia.TTF / WorkSans-Bold.TTF / WorkSansBlack-Black.TTF / XangdaShiny.TTF / AwesomeSauceDemo.OTF / GandhiSans-Bold.OTF / GandhiSans-BoldItalic.OTF / PeunaBrush.OTF

Video
ID                                       : 1
Format                                   : AV1
Format/Info                              : AOMedia Video 1
Format profile                           : Main@L4.0
Codec ID                                 : V_AV1
Duration                                 : 23 min 50 s
Bit rate                                 : 956 kb/s
Width                                    : 1 920 pixels
Height                                   : 1 080 pixels
Display aspect ratio                     : 16:9
Frame rate mode                          : Constant
Frame rate                               : 23.976 FPS
Color space                              : YUV
Chroma subsampling                       : 4:2:0
Bit depth                                : 10 bits
Bits/(Pixel*Frame)                       : 0.019
Stream size                              : 163 MiB (80%)
Default                                  : Yes
Forced                                   : No
Color range                              : Limited

Audio #1
ID                                       : 2
Format                                   : Opus
Codec ID                                 : A_OPUS
Duration                                 : 23 min 50 s
Bit rate                                 : 96.5 kb/s
Channel(s)                               : 2 channels
Channel layout                           : L R
Sampling rate                            : 48.0 kHz
Frame rate                               : 50.000 FPS (960 SPF)
Bit depth                                : 32 bits
Compression mode                         : Lossy
Stream size                              : 16.5 MiB (8%)
Title                                    : OPUS 2.0
Writing library                          : Lavc60.31.102 libopus
Language                                 : Japanese
Default                                  : Yes
Forced                                   : No

Audio #2
ID                                       : 3
Format                                   : Opus
Codec ID                                 : A_OPUS
Duration                                 : 23 min 50 s
Bit rate                                 : 94.7 kb/s
Channel(s)                               : 2 channels
Channel layout                           : L R
Sampling rate                            : 48.0 kHz
Frame rate                               : 50.000 FPS (960 SPF)
Bit depth                                : 32 bits
Compression mode                         : Lossy
Stream size                              : 16.1 MiB (8%)
Title                                    : OPUS 2.0
Writing library                          : Lavc60.31.102 libopus
Language                                 : English
Default                                  : No
Forced                                   : No

Text #1
ID                                       : 4
Format                                   : ASS
Codec ID                                 : S_TEXT/ASS
Codec ID/Info                            : Advanced Sub Station Alpha
Compression mode                         : Lossless
Title                                    : Full Subtitles [GJM]
Language                                 : English
Default                                  : Yes
Forced                                   : No
Statistics Tags Issue                    : mkvmerge v78.0 ('Running') 64-bit 2024-01-02 13:45:38 / Lavf60.16.100 2024-01-04 15:54:41
FromStats_BitRate                        : 5706
FromStats_Duration                       : 00:23:50.030000000
FromStats_FrameCount                     : 5989
FromStats_StreamSize                     : 1013880

Text #2
ID                                       : 5
Format                                   : ASS
Codec ID                                 : S_TEXT/ASS
Codec ID/Info                            : Advanced Sub Station Alpha
Compression mode                         : Lossless
Title                                    : Signs/Songs [GJM]
Language                                 : English
Default                                  : No
Forced                                   : Yes
Statistics Tags Issue                    : mkvmerge v78.0 ('Running') 64-bit 2024-01-02 13:45:38 / Lavf60.16.100 2024-01-04 15:54:41
FromStats_BitRate                        : 5925
FromStats_Duration                       : 00:23:50.030000000
FromStats_FrameCount                     : 5589
FromStats_StreamSize                     : 989672

Menu
00:00:00.007                             : Prologue
00:01:49.033                             : Opening
00:03:18.997                             : Part A
00:14:24.996                             : Part B
00:21:56.072                             : Ending
00:23:26.037                             : Epilogue
00:23:45.056                             : Preview

Other Files in this Torrent
[Kosaka] One Punch Man Season 2 - 04 - Metal Bat (1080p AV1 10Bit BluRay OPUS) [Dual-Audio] [06DA7227].mkv
beta
Anime DDL+NZB mirror
Current Time: 20/05/2024 22:50



About/FAQs

Discord