[Kosaka] One Punch Man Season 2 - 07 - The Class S Heroes (1080p AV1 10Bit BluRay OPUS) [Dual-Audio] [8C2121E7].mkv


File Size202.8 MB (212,617,138 bytes)
DownloadClickNUpload | DailyUploads | DownloadGG | GoFile | KrakenFiles | MdiaLoad | MultiUp
  • BdUpload
  • DownAce
  • Fichier
  • FileCloud
  • Filerio
  • FilesCdn
  • IndiShare
  • Kbagi
  • Turbobit
  • UpToBox
  • Uppit
| Uppit
HashesCRC32: 8C2121E7, MD5: 40CA899DAA76E3A9D32A07FED2E18371, SHA1: 79B2D0AC36B63C89DFFE8F902170320DF1859CA0, SHA256: 26C629D272C97FCCC48C6D755F0C36F6A741A9C96C035EDFB816A1E59302087D, ED2K: 8EE059531AFA905C2332709F4EBD5956
Screenshots
screenshotscreenshotscreenshotscreenshotscreenshot
SubtitlesAll Attachments | Full Subtitles [GJM] [eng, ASS], Signs/Songs [GJM] [eng, ASS]
Additional Info
General
Unique ID                                : 69102772400367551002406831243720002815 (0x33FCB5B96CB07C43E2C590AF1D9E0CFF)
Complete name                            : [Kosaka] One Punch Man Season 2 - 07 - The Class S Heroes (1080p AV1 10Bit BluRay OPUS) [Dual-Audio] [8C2121E7].mkv
Format                                   : Matroska
Format version                           : Version 4
File size                                : 203 MiB
Duration                                 : 23 min 50 s
Overall bit rate                         : 1 189 kb/s
Frame rate                               : 23.976 FPS
Movie name                               : One Punch Man Season 2 - 07 - The Class S Heroes
Encoded date                             : 2024-01-05 11:46:25 UTC
Writing application                      : Lavf60.16.100
Writing library                          : Lavf60.16.100
ErrorDetectionType                       : Per level 1
Attachments                              : albatross.TTF / arial.ttf / ComicBook.TTF / COMICBOOK.TTF.TTF / EvaFangoria.TTF / franchise-Bold.TTF / FreshMarker.TTF / JaneRoe-Bold.TTF / MasterBreaker.TTF / toxia.TTF / WorkSans-Bold.TTF / WorkSansBlack-Black.TTF / XangdaShiny.TTF / AwesomeSauceDemo.OTF / GandhiSans-Bold.OTF / GandhiSans-BoldItalic.OTF / PeunaBrush.OTF

Video
ID                                       : 1
Format                                   : AV1
Format/Info                              : AOMedia Video 1
Format profile                           : Main@L4.0
Codec ID                                 : V_AV1
Duration                                 : 23 min 50 s
Bit rate                                 : 978 kb/s
Width                                    : 1 920 pixels
Height                                   : 1 080 pixels
Display aspect ratio                     : 16:9
Frame rate mode                          : Constant
Frame rate                               : 23.976 FPS
Color space                              : YUV
Chroma subsampling                       : 4:2:0
Bit depth                                : 10 bits
Bits/(Pixel*Frame)                       : 0.020
Stream size                              : 167 MiB (82%)
Default                                  : Yes
Forced                                   : No
Color range                              : Limited

Audio #1
ID                                       : 2
Format                                   : Opus
Codec ID                                 : A_OPUS
Duration                                 : 23 min 50 s
Bit rate                                 : 94.3 kb/s
Channel(s)                               : 2 channels
Channel layout                           : L R
Sampling rate                            : 48.0 kHz
Frame rate                               : 50.000 FPS (960 SPF)
Bit depth                                : 32 bits
Compression mode                         : Lossy
Stream size                              : 16.1 MiB (8%)
Title                                    : OPUS 2.0
Writing library                          : Lavc60.31.102 libopus
Language                                 : Japanese
Default                                  : Yes
Forced                                   : No

Audio #2
ID                                       : 3
Format                                   : Opus
Codec ID                                 : A_OPUS
Duration                                 : 23 min 50 s
Bit rate                                 : 93.4 kb/s
Channel(s)                               : 2 channels
Channel layout                           : L R
Sampling rate                            : 48.0 kHz
Frame rate                               : 50.000 FPS (960 SPF)
Bit depth                                : 32 bits
Compression mode                         : Lossy
Stream size                              : 15.9 MiB (8%)
Title                                    : OPUS 2.0
Writing library                          : Lavc60.31.102 libopus
Language                                 : English
Default                                  : No
Forced                                   : No

Text #1
ID                                       : 4
Format                                   : ASS
Codec ID                                 : S_TEXT/ASS
Codec ID/Info                            : Advanced Sub Station Alpha
Compression mode                         : Lossless
Title                                    : Full Subtitles [GJM]
Language                                 : English
Default                                  : Yes
Forced                                   : No
Statistics Tags Issue                    : mkvmerge v78.0 ('Running') 64-bit 2024-01-02 13:46:07 / Lavf60.16.100 2024-01-05 11:46:25
FromStats_BitRate                        : 780
FromStats_Duration                       : 00:23:50.070000000
FromStats_FrameCount                     : 1145
FromStats_StreamSize                     : 139394

Text #2
ID                                       : 5
Format                                   : ASS
Codec ID                                 : S_TEXT/ASS
Codec ID/Info                            : Advanced Sub Station Alpha
Compression mode                         : Lossless
Title                                    : Signs/Songs [GJM]
Language                                 : English
Default                                  : No
Forced                                   : Yes
Statistics Tags Issue                    : mkvmerge v78.0 ('Running') 64-bit 2024-01-02 13:46:07 / Lavf60.16.100 2024-01-05 11:46:25
FromStats_BitRate                        : 657
FromStats_Duration                       : 00:23:50.070000000
FromStats_FrameCount                     : 737
FromStats_StreamSize                     : 114560

Menu
00:00:00.007                             : Prologue
00:00:26.033                             : Opening
00:01:56.040                             : Part A
00:12:28.088                             : Part B
00:21:54.111                             : Ending
00:23:24.076                             : Epilogue
00:23:45.097                             : Preview

Other Files in this Torrent
[Kosaka] One Punch Man Season 2 - 07 - The Class S Heroes (1080p AV1 10Bit BluRay OPUS) [Dual-Audio] [8C2121E7].mkv
beta
Anime DDL+NZB mirror
Current Time: 18/05/2024 09:19



About/FAQs

Discord