[Kosaka] One Punch Man Season 2 - 05 - The Martial Arts Tournament (1080p AV1 10Bit BluRay OPUS) [Dual-Audio] [6FC22039].mkv


File Size202.6 MB (212,434,970 bytes)
DownloadClickNUpload | DailyUploads | DownloadGG | GoFile | KrakenFiles | MdiaLoad | MultiUp
  • BdUpload
  • DownAce
  • Fichier
  • FileCloud
  • Filerio
  • FilesCdn
  • IndiShare
  • Kbagi
  • Turbobit
  • UpToBox
  • Uppit
| Uppit
HashesCRC32: 6FC22039, MD5: D20E9E5E6DE1DA466FBC0AD7348F8907, SHA1: 3AF975D6E82AB16517D5742E5A39B2867B9D0FF0, SHA256: 7A25AB76B0A85BADE98EBEDF8A0F782EA1A15291ECEFB62BF5E016D190CF1582, ED2K: A413A42411ED726D92F24BA290001432
Screenshots
screenshotscreenshotscreenshotscreenshotscreenshot
SubtitlesAll Attachments | Full Subtitles [GJM] [eng, ASS], Signs/Songs [GJM] [eng, ASS]
Additional Info
General
Unique ID                                : 12297118078473249796400953807538128859 (0x94056BB2F1469D549D6085FC33687DB)
Complete name                            : [Kosaka] One Punch Man Season 2 - 05 - The Martial Arts Tournament (1080p AV1 10Bit BluRay OPUS) [Dual-Audio] [6FC22039].mkv
Format                                   : Matroska
Format version                           : Version 4
File size                                : 203 MiB
Duration                                 : 23 min 50 s
Overall bit rate                         : 1 188 kb/s
Frame rate                               : 23.976 FPS
Movie name                               : One Punch Man Season 2 - 05 - The Martial Arts Tournament
Encoded date                             : 2024-01-04 20:44:13 UTC
Writing application                      : Lavf60.16.100
Writing library                          : Lavf60.16.100
ErrorDetectionType                       : Per level 1
Attachments                              : A.c.m.e.SecretAgent-Bold.TTF / albatross.TTF / ArchitectsDaughter.TTF / ARCHITECTSDAUGHTER.TTF.TTF / arial.ttf / DkCinnabarBrush.TTF / franchise-Bold.TTF / gsmfont.TTF / JaneRoe-Bold.TTF / MasterBreaker.TTF / WorkSans-Bold.TTF / WorkSans.TTF / WorkSansBlack-Black.TTF / WorkSansLight-Light.TTF / XangdaShiny.TTF / AwesomeSauceDemo.OTF / GandhiSans-Bold.OTF / GandhiSans-BoldItalic.OTF / JmhTypewriterSans-Bold.OTF / PeunaBrush.OTF

Video
ID                                       : 1
Format                                   : AV1
Format/Info                              : AOMedia Video 1
Format profile                           : Main@L4.0
Codec ID                                 : V_AV1
Duration                                 : 23 min 50 s
Bit rate                                 : 933 kb/s
Width                                    : 1 920 pixels
Height                                   : 1 080 pixels
Display aspect ratio                     : 16:9
Frame rate mode                          : Constant
Frame rate                               : 23.976 FPS
Color space                              : YUV
Chroma subsampling                       : 4:2:0
Bit depth                                : 10 bits
Bits/(Pixel*Frame)                       : 0.019
Stream size                              : 159 MiB (79%)
Default                                  : Yes
Forced                                   : No
Color range                              : Limited

Audio #1
ID                                       : 2
Format                                   : Opus
Codec ID                                 : A_OPUS
Duration                                 : 23 min 50 s
Bit rate                                 : 94.0 kb/s
Channel(s)                               : 2 channels
Channel layout                           : L R
Sampling rate                            : 48.0 kHz
Frame rate                               : 50.000 FPS (960 SPF)
Bit depth                                : 32 bits
Compression mode                         : Lossy
Stream size                              : 16.0 MiB (8%)
Title                                    : OPUS 2.0
Writing library                          : Lavc60.31.102 libopus
Language                                 : Japanese
Default                                  : Yes
Forced                                   : No

Audio #2
ID                                       : 3
Format                                   : Opus
Codec ID                                 : A_OPUS
Duration                                 : 23 min 50 s
Bit rate                                 : 93.5 kb/s
Channel(s)                               : 2 channels
Channel layout                           : L R
Sampling rate                            : 48.0 kHz
Frame rate                               : 50.000 FPS (960 SPF)
Bit depth                                : 32 bits
Compression mode                         : Lossy
Stream size                              : 15.9 MiB (8%)
Title                                    : OPUS 2.0
Writing library                          : Lavc60.31.102 libopus
Language                                 : English
Default                                  : No
Forced                                   : No

Text #1
ID                                       : 4
Format                                   : ASS
Codec ID                                 : S_TEXT/ASS
Codec ID/Info                            : Advanced Sub Station Alpha
Compression mode                         : Lossless
Title                                    : Full Subtitles [GJM]
Language                                 : English
Default                                  : Yes
Forced                                   : No
Statistics Tags Issue                    : mkvmerge v78.0 ('Running') 64-bit 2024-01-02 13:45:49 / Lavf60.16.100 2024-01-04 20:44:13
FromStats_BitRate                        : 19941
FromStats_Duration                       : 00:23:49.990000000
FromStats_FrameCount                     : 10547
FromStats_StreamSize                     : 3562644

Text #2
ID                                       : 5
Format                                   : ASS
Codec ID                                 : S_TEXT/ASS
Codec ID/Info                            : Advanced Sub Station Alpha
Compression mode                         : Lossless
Title                                    : Signs/Songs [GJM]
Language                                 : English
Default                                  : No
Forced                                   : Yes
Statistics Tags Issue                    : mkvmerge v78.0 ('Running') 64-bit 2024-01-02 13:45:49 / Lavf60.16.100 2024-01-04 20:44:13
FromStats_BitRate                        : 20429
FromStats_Duration                       : 00:23:49.990000000
FromStats_FrameCount                     : 10122
FromStats_StreamSize                     : 3535638

Menu
00:00:00.007                             : Prologue
00:01:51.035                             : Opening
00:03:20.999                             : Part A
00:11:29.988                             : Part B
00:21:18.034                             : Ending
00:22:47.999                             : Epilogue
00:23:45.014                             : Preview

Other Files in this Torrent
[Kosaka] One Punch Man Season 2 - 05 - The Martial Arts Tournament (1080p AV1 10Bit BluRay OPUS) [Dual-Audio] [6FC22039].mkv
beta
Anime DDL+NZB mirror
Current Time: 18/05/2024 09:27



About/FAQs

Discord