Extras/OVA/[Kosaka] One Punch Man Season 2 Specials - OVA - 06 - The Zombieman Murder Case 02 A Chalet Amid the Blizzard, and the Ones Bothered by the Cold (1080p AV1 10Bit BluRay OPUS) [Dual-Audio] [13FF4D6D].mkv


File Size84.17 MB (88,262,008 bytes)
DownloadClickNUpload | DailyUploads | DownloadGG | GoFile | KrakenFiles | MdiaLoad | MultiUp
  • BdUpload
  • DownAce
  • Fichier
  • FileCloud
  • Filerio
  • FilesCdn
  • IndiShare
  • Kbagi
  • Turbobit
  • UpToBox
  • Uppit
| Uppit
HashesCRC32: 13FF4D6D, MD5: 28F3C34243622BFDFFF36719C39FD067, SHA1: 68346B5968CF518185BB52AAA04EAE3B9A2034F1, SHA256: E283C3DD1C6BC9B12D28730F8D7AD839F94ABEBF2D28FA96F3330F36420601C5, ED2K: 57BB1A56DED7799B790A85A81DBEFB9C
Screenshots
screenshotscreenshotscreenshotscreenshotscreenshot
SubtitlesAll Attachments | Full Subtitles [GJM] [eng, ASS], Signs/Songs [GJM] [eng, ASS]
Additional Info
General
Unique ID                                : 221485475798962734880225179411306201749 (0xA6A08D0EE9C8C81DA4715597EE234295)
Complete name                            : [Kosaka] One Punch Man Season 2 Specials - OVA - 06 - The Zombieman Murder Case 02 A Chalet Amid the Blizzard, and the Ones Bothered by the Cold (1080p AV1 10Bit BluRay OPUS) [Dual-Audio] [13FF4D6D].mkv
Format                                   : Matroska
Format version                           : Version 4
File size                                : 84.2 MiB
Duration                                 : 12 min 0 s
Overall bit rate                         : 981 kb/s
Frame rate                               : 23.976 FPS
Movie name                               : One Punch Man Season 2 Specials - OVA - 06 - The Zombieman Murder Case 02 A Chalet Amid the Blizzard, and the Ones Bothered by the Cold
Encoded date                             : 2024-01-06 00:53:55 UTC
Writing application                      : Lavf60.16.100
Writing library                          : Lavf60.16.100
ErrorDetectionType                       : Per level 1
Attachments                              : albatross.TTF / arial-Bold.TTF / BrushStrokes.TTF / lazer84.TTF / PeoniPatterns.TTF / SkamFont.TTF / GandhiSans-Bold.OTF / GandhiSans-BoldItalic.OTF / HeyOctober.OTF / HighMountPersonalUse.OTF

Video
ID                                       : 1
Format                                   : AV1
Format/Info                              : AOMedia Video 1
Format profile                           : Main@L4.0
Codec ID                                 : V_AV1
Duration                                 : 12 min 0 s
Bit rate                                 : 753 kb/s
Width                                    : 1 920 pixels
Height                                   : 1 080 pixels
Display aspect ratio                     : 16:9
Frame rate mode                          : Constant
Frame rate                               : 23.976 FPS
Color space                              : YUV
Chroma subsampling                       : 4:2:0
Bit depth                                : 10 bits
Bits/(Pixel*Frame)                       : 0.015
Stream size                              : 64.6 MiB (77%)
Default                                  : Yes
Forced                                   : No
Color range                              : Limited

Audio #1
ID                                       : 2
Format                                   : Opus
Codec ID                                 : A_OPUS
Duration                                 : 12 min 0 s
Bit rate                                 : 97.7 kb/s
Channel(s)                               : 2 channels
Channel layout                           : L R
Sampling rate                            : 48.0 kHz
Frame rate                               : 50.000 FPS (960 SPF)
Bit depth                                : 32 bits
Compression mode                         : Lossy
Stream size                              : 8.39 MiB (10%)
Title                                    : OPUS 2.0
Writing library                          : Lavc60.31.102 libopus
Language                                 : Japanese
Default                                  : Yes
Forced                                   : No

Audio #2
ID                                       : 3
Format                                   : Opus
Codec ID                                 : A_OPUS
Duration                                 : 12 min 0 s
Bit rate                                 : 96.2 kb/s
Channel(s)                               : 2 channels
Channel layout                           : L R
Sampling rate                            : 48.0 kHz
Frame rate                               : 50.000 FPS (960 SPF)
Bit depth                                : 32 bits
Compression mode                         : Lossy
Stream size                              : 8.26 MiB (10%)
Title                                    : OPUS 2.0
Writing library                          : Lavc60.31.102 libopus
Language                                 : English
Default                                  : No
Forced                                   : No

Text #1
ID                                       : 4
Format                                   : ASS
Codec ID                                 : S_TEXT/ASS
Codec ID/Info                            : Advanced Sub Station Alpha
Compression mode                         : Lossless
Title                                    : Full Subtitles [GJM]
Language                                 : English
Default                                  : Yes
Forced                                   : No
Statistics Tags Issue                    : mkvmerge v78.0 ('Running') 64-bit 2024-01-02 14:40:08 / Lavf60.16.100 2024-01-06 00:53:55
FromStats_BitRate                        : 485
FromStats_Duration                       : 00:11:50.690000000
FromStats_FrameCount                     : 412
FromStats_StreamSize                     : 43000

Text #2
ID                                       : 5
Format                                   : ASS
Codec ID                                 : S_TEXT/ASS
Codec ID/Info                            : Advanced Sub Station Alpha
Compression mode                         : Lossless
Title                                    : Signs/Songs [GJM]
Language                                 : English
Default                                  : No
Forced                                   : Yes
Statistics Tags Issue                    : mkvmerge v78.0 ('Running') 64-bit 2024-01-02 14:40:08 / Lavf60.16.100 2024-01-06 00:53:55
FromStats_BitRate                        : 347
FromStats_Duration                       : 00:11:50.690000000
FromStats_FrameCount                     : 190
FromStats_StreamSize                     : 28613

Menu
00:00:00.007                             : Episode
00:10:30.053                             : Ending

Other Files in this Torrent
Extras/OVA/[Kosaka] One Punch Man Season 2 Specials - OVA - 06 - The Zombieman Murder Case 02 A Chalet Amid the Blizzard, and the Ones Bothered by the Cold (1080p AV1 10Bit BluRay OPUS) [Dual-Audio] [13FF4D6D].mkv
beta
Anime DDL+NZB mirror
Current Time: 20/05/2024 21:20



About/FAQs

Discord