Extras/NC/[Kosaka] One Punch Man Season 2 - NCOP (1080p AV1 10Bit BluRay OPUS) [06158AFC].mkv


File Size31.71 MB (33,248,937 bytes)
DownloadClickNUpload | DailyUploads | DownloadGG | GoFile | KrakenFiles | MdiaLoad | MultiUp
  • BdUpload
  • DownAce
  • Fichier
  • FileCloud
  • Filerio
  • FilesCdn
  • IndiShare
  • Kbagi
  • Turbobit
  • UpToBox
  • Uppit
| Uppit
HashesCRC32: 06158AFC, MD5: D4FBE382CF0F0A924EE1633D8BD1F0C6, SHA1: 4D89DDD73F064E6B067A92B8C7F95613FD7FDCB7, SHA256: 4C80B8EE32FD10BB9D1663245CD8B4BF7FEF1B4E5C581B96BAF8D5CFABA4DB54, ED2K: 71629D8E6644986136EB400B013BBB3C
Screenshots
screenshotscreenshot
SubtitlesAll Attachments | GJM [eng, ASS]
Additional Info
General
Unique ID                                : 1256351876405897379208209713373327943 (0xF1F6EE0E53936EF0D5F582C9133247)
Complete name                            : [Kosaka] One Punch Man Season 2 - NCOP (1080p AV1 10Bit BluRay OPUS) [06158AFC].mkv
Format                                   : Matroska
Format version                           : Version 4
File size                                : 31.7 MiB
Duration                                 : 1 min 30 s
Overall bit rate                         : 2 955 kb/s
Frame rate                               : 23.976 FPS
Encoded date                             : 2024-01-05 21:45:55 UTC
Writing application                      : Lavf60.16.100
Writing library                          : Lavf60.16.100
ErrorDetectionType                       : Per level 1
Attachments                              : arial.ttf / FRANCHISE-BOLD.TTF / JANEROE-BOLD.TTF / AWESOMESAUCEDEMO-REGULAR.OTF / PEUNABRUSH-REGULAR.OTF

Video
ID                                       : 1
Format                                   : AV1
Format/Info                              : AOMedia Video 1
Format profile                           : Main@L4.0
Codec ID                                 : V_AV1
Duration                                 : 1 min 30 s
Bit rate                                 : 2 746 kb/s
Width                                    : 1 920 pixels
Height                                   : 1 080 pixels
Display aspect ratio                     : 16:9
Frame rate mode                          : Constant
Frame rate                               : 23.976 (23976/1000) FPS
Color space                              : YUV
Chroma subsampling                       : 4:2:0
Bit depth                                : 10 bits
Bits/(Pixel*Frame)                       : 0.055
Stream size                              : 29.5 MiB (93%)
Default                                  : Yes
Forced                                   : No
Color range                              : Limited

Audio
ID                                       : 2
Format                                   : Opus
Codec ID                                 : A_OPUS
Duration                                 : 1 min 29 s
Bit rate                                 : 89.2 kb/s
Channel(s)                               : 2 channels
Channel layout                           : L R
Sampling rate                            : 48.0 kHz
Frame rate                               : 49.997 FPS (960 SPF)
Bit depth                                : 32 bits
Compression mode                         : Lossy
Stream size                              : 980 KiB (3%)
Title                                    : OPUS 2.0
Writing library                          : Lavc60.31.102 libopus
Language                                 : Japanese
Default                                  : Yes
Forced                                   : No

Text
ID                                       : 3
Format                                   : ASS
Codec ID                                 : S_TEXT/ASS
Codec ID/Info                            : Advanced Sub Station Alpha
Compression mode                         : Lossless
Title                                    : GJM
Language                                 : English
Default                                  : Yes
Forced                                   : No
Statistics Tags Issue                    : mkvmerge v80.0 ('Roundabout') 64-bit 2024-01-02 13:47:19 / Lavf60.16.100 2024-01-05 21:45:55
FromStats_BitRate                        : 5420
FromStats_Duration                       : 00:01:29.940000000
FromStats_FrameCount                     : 447
FromStats_StreamSize                     : 54172

Other Files in this Torrent
Extras/NC/[Kosaka] One Punch Man Season 2 - NCOP (1080p AV1 10Bit BluRay OPUS) [06158AFC].mkv
beta
Anime DDL+NZB mirror
Current Time: 18/05/2024 10:52



About/FAQs

Discord