[Kosaka] One Punch Man Season 2 - 03 - The Hunt Begins (1080p AV1 10Bit BluRay OPUS) [Dual-Audio] [EF37848A].mkv


File Size182.9 MB (191,757,546 bytes)
DownloadClickNUpload | DailyUploads | DownloadGG | GoFile | KrakenFiles | MdiaLoad | MultiUp
  • BdUpload
  • DownAce
  • Fichier
  • FileCloud
  • Filerio
  • FilesCdn
  • IndiShare
  • Kbagi
  • Turbobit
  • UpToBox
  • Uppit
| Uppit
HashesCRC32: EF37848A, MD5: F5013811ADAD84DF1A3F9B9AD7CD5478, SHA1: 056C1F657B1F7B1C3B9EDC92747F26ED86041830, SHA256: 6E37677B459E97ACC8FC7D0412603E8B9F454F18343FB69B8F4B726812FFE7D6, ED2K: 18D8DAE3E9A7C96FC25295FFA379EBDD
Screenshots
screenshotscreenshotscreenshotscreenshotscreenshot
SubtitlesAll Attachments | Full Subtitles [GJM] [eng, ASS], Signs/Songs [GJM] [eng, ASS]
Additional Info
General
Unique ID                                : 81999019756132297907344246376877613986 (0x3DB06FCF3BA15509516A8A2FBBED63A2)
Complete name                            : [Kosaka] One Punch Man Season 2 - 03 - The Hunt Begins (1080p AV1 10Bit BluRay OPUS) [Dual-Audio] [EF37848A].mkv
Format                                   : Matroska
Format version                           : Version 4
File size                                : 183 MiB
Duration                                 : 23 min 50 s
Overall bit rate                         : 1 073 kb/s
Frame rate                               : 23.976 FPS
Movie name                               : One Punch Man Season 2 - 03 - The Hunt Begins
Encoded date                             : 2024-01-04 10:45:42 UTC
Writing application                      : Lavf60.16.100
Writing library                          : Lavf60.16.100
ErrorDetectionType                       : Per level 1
Attachments                              : AdegaSerif.TTF / albatross.TTF / AnaphoraTrial-BoldItalic.TTF / ArchitectsDaughter.TTF / arial.ttf / franchise-Bold.TTF / GuthenBlootsPersonalUse.TTF / HappyDay.TTF / JaneRoe-Bold.TTF / LostWorld.TTF / MasterBreaker.TTF / ostelia.TTF / sniglet-ExtraBold.TTF / WorkSans-Bold.TTF / XangdaShiny.TTF / always.OTF / AwesomeSauceDemo.OTF / GandhiSans-Bold.OTF / GandhiSans-BoldItalic.OTF / malvie.OTF / PeunaBrush.OTF

Video
ID                                       : 1
Format                                   : AV1
Format/Info                              : AOMedia Video 1
Format profile                           : Main@L4.0
Codec ID                                 : V_AV1
Duration                                 : 23 min 50 s
Bit rate                                 : 776 kb/s
Width                                    : 1 920 pixels
Height                                   : 1 080 pixels
Display aspect ratio                     : 16:9
Frame rate mode                          : Constant
Frame rate                               : 23.976 FPS
Color space                              : YUV
Chroma subsampling                       : 4:2:0
Bit depth                                : 10 bits
Bits/(Pixel*Frame)                       : 0.016
Stream size                              : 132 MiB (72%)
Default                                  : Yes
Forced                                   : No
Color range                              : Limited

Audio #1
ID                                       : 2
Format                                   : Opus
Codec ID                                 : A_OPUS
Duration                                 : 23 min 50 s
Bit rate                                 : 95.7 kb/s
Channel(s)                               : 2 channels
Channel layout                           : L R
Sampling rate                            : 48.0 kHz
Frame rate                               : 50.000 FPS (960 SPF)
Bit depth                                : 32 bits
Compression mode                         : Lossy
Stream size                              : 16.3 MiB (9%)
Title                                    : OPUS 2.0
Writing library                          : Lavc60.31.102 libopus
Language                                 : Japanese
Default                                  : Yes
Forced                                   : No

Audio #2
ID                                       : 3
Format                                   : Opus
Codec ID                                 : A_OPUS
Duration                                 : 23 min 50 s
Bit rate                                 : 93.6 kb/s
Channel(s)                               : 2 channels
Channel layout                           : L R
Sampling rate                            : 48.0 kHz
Frame rate                               : 50.000 FPS (960 SPF)
Bit depth                                : 32 bits
Compression mode                         : Lossy
Stream size                              : 16.0 MiB (9%)
Title                                    : OPUS 2.0
Writing library                          : Lavc60.31.102 libopus
Language                                 : English
Default                                  : No
Forced                                   : No

Text #1
ID                                       : 4
Format                                   : ASS
Codec ID                                 : S_TEXT/ASS
Codec ID/Info                            : Advanced Sub Station Alpha
Compression mode                         : Lossless
Title                                    : Full Subtitles [GJM]
Language                                 : English
Default                                  : Yes
Forced                                   : No
Statistics Tags Issue                    : mkvmerge v78.0 ('Running') 64-bit 2024-01-02 13:45:24 / Lavf60.16.100 2024-01-04 10:45:42
FromStats_BitRate                        : 34154
FromStats_Duration                       : 00:23:50.030000000
FromStats_FrameCount                     : 40722
FromStats_StreamSize                     : 6094686

Text #2
ID                                       : 5
Format                                   : ASS
Codec ID                                 : S_TEXT/ASS
Codec ID/Info                            : Advanced Sub Station Alpha
Compression mode                         : Lossless
Title                                    : Signs/Songs [GJM]
Language                                 : English
Default                                  : No
Forced                                   : Yes
Statistics Tags Issue                    : mkvmerge v78.0 ('Running') 64-bit 2024-01-02 13:45:24 / Lavf60.16.100 2024-01-04 10:45:42
FromStats_BitRate                        : 34063
FromStats_Duration                       : 00:23:50.030000000
FromStats_FrameCount                     : 40262
FromStats_StreamSize                     : 6066412

Menu
00:00:00.007                             : Prologue
00:00:28.035                             : Opening
00:01:58.042                             : Part A
00:10:00.065                             : Part B
00:21:10.067                             : Ending
00:22:40.032                             : Epilogue
00:23:45.056                             : Preview

Other Files in this Torrent
[Kosaka] One Punch Man Season 2 - 03 - The Hunt Begins (1080p AV1 10Bit BluRay OPUS) [Dual-Audio] [EF37848A].mkv
beta
Anime DDL+NZB mirror
Current Time: 18/05/2024 10:01



About/FAQs

Discord