Movies/[Breeze] Kino no Tabi - In Order to Do Something -Life Goes On- [480p][AV1].mkv


File Size259.0 MB (271,542,977 bytes)
DownloadAnonFiles | ClickNUpload | DownloadGG | KrakenFiles | MultiUp
  • BdUpload
  • DownAce
  • Fichier
  • FileCloud
  • Filerio
  • FilesCdn
  • IndiShare
  • Kbagi
  • Turbobit
  • UpToBox
  • Uppit
| ZippyShare
HashesCRC32: A282EFFA, MD5: 4C337B3395DBA01ACB52F2C8C30E1B5A, SHA1: 4A3BDEA3F2DC75BFF4C59A4AF05446F1EFCAA321, SHA256: 3581E90C14713648CBFE953D95FFF72862B4F3B782F5EB45BCD35935DC56D0CD, ED2K: 44CC016363F8B1B27F1953DFE7CE2225
Screenshots
screenshotscreenshotscreenshotscreenshotscreenshot
SubtitlesAll Attachments | eng [ASS], eng [ASS]
Additional Info
General
Unique ID                                : 286708396870905511514189843929368708143 (0xD7B20757D73C2F20EC24EDA755F1442F)
Complete name                            : [Breeze] Kino no Tabi - In Order to Do Something -Life Goes On- [480p][AV1].mkv
Format                                   : Matroska
Format version                           : Version 4
File size                                : 259 MiB
Duration                                 : 29 min 59 s
Overall bit rate                         : 1 207 kb/s
Encoded date                             : UTC 2022-12-31 20:08:20
Writing application                      : mkvmerge v67.0.0 ('Under Stars') 64-bit
Writing library                          : libebml v1.4.2 + libmatroska v1.6.4
Attachments                              : LTe52140.ttf / SEMPB___.ttf / SEMPBI__.ttf / SEMPER__.ttf / SEMPI___.ttf / TIMES.ttf / TIMESBD.ttf / TIMESBI.ttf / TIMESI.ttf / Virtue.ttf

Video
ID                                       : 1
Format                                   : AV1
Format/Info                              : AOMedia Video 1
Format profile                           : Main@L3.0
Codec ID                                 : V_AV1
Duration                                 : 29 min 59 s
Bit rate                                 : 1 045 kb/s
Width                                    : 710 pixels
Height                                   : 480 pixels
Display aspect ratio                     : 4:3
Frame rate mode                          : Variable
Frame rate                               : 23.976 FPS
Color space                              : YUV
Chroma subsampling                       : 4:2:0
Bit depth                                : 10 bits
Bits/(Pixel*Frame)                       : 0.128
Stream size                              : 224 MiB (87%)
Default                                  : No
Forced                                   : No
Color range                              : Limited

Audio
ID                                       : 2
Format                                   : Opus
Codec ID                                 : A_OPUS
Duration                                 : 29 min 59 s
Bit rate                                 : 151 kb/s
Channel(s)                               : 2 channels
Channel layout                           : L R
Sampling rate                            : 48.0 kHz
Frame rate                               : 50.000 FPS (960 SPF)
Compression mode                         : Lossy
Stream size                              : 32.5 MiB (13%)
Writing library                          : Lavc59.25.100 libopus
Language                                 : English
Default                                  : No
Forced                                   : No

Text #1
ID                                       : 3
Format                                   : ASS
Codec ID                                 : S_TEXT/ASS
Codec ID/Info                            : Advanced Sub Station Alpha
Duration                                 : 29 min 20 s
Bit rate                                 : 107 b/s
Count of elements                        : 347
Compression mode                         : Lossless
Stream size                              : 23.2 KiB (0%)
Language                                 : English
Default                                  : No
Forced                                   : No

Text #2
ID                                       : 4
Format                                   : ASS
Codec ID                                 : S_TEXT/ASS
Codec ID/Info                            : Advanced Sub Station Alpha
Duration                                 : 29 min 20 s
Bit rate                                 : 83 b/s
Count of elements                        : 327
Compression mode                         : Lossless
Stream size                              : 17.9 KiB (0%)
Language                                 : English
Default                                  : No
Forced                                   : No

Menu
00:00:00.000                             : :Chapter 01
00:01:29.589                             : :Chapter 02
00:28:09.354                             : :Chapter 03

Other Files in this Torrent
Movies/[Breeze] Kino no Tabi - In Order to Do Something -Life Goes On- [480p][AV1].mkv
beta
Anime DDL+NZB mirror
Current Time: 21/06/2024 08:09



About/FAQs

Discord