Kino no Tabi 2003/[Breeze] Kino no Tabi (2003) 13 [576p DVD][AV1].mkv


File Size247.2 MB (259,191,600 bytes)
DownloadAnonFiles | ClickNUpload | DownloadGG | KrakenFiles | MultiUp
  • BdUpload
  • DownAce
  • Fichier
  • FileCloud
  • Filerio
  • FilesCdn
  • IndiShare
  • Kbagi
  • Turbobit
  • UpToBox
  • Uppit
| ZippyShare
HashesCRC32: ADB3A140, MD5: 07EC59A634D80EB4BF71584A6F57770D, SHA1: 55DB537B26759591B2F6F04BD6153370DC59CC53, SHA256: BDF39D4B002C75A907C7CCA2A7194C338FB15BB52BA61042F24D4FB82BC93CBB, ED2K: B04725ABA9B74B7765E1EA78254A083A
Screenshots
screenshotscreenshotscreenshotscreenshotscreenshot
SubtitlesAll Attachments | Subs by KAA [eng, ASS]
Additional Info
General
Unique ID                                : 229372174434254978778620228340934317342 (0xAC8F795281EAF289F7C09E61982D151E)
Complete name                            : [Breeze] Kino no Tabi (2003) 13 [576p DVD][AV1].mkv
Format                                   : Matroska
Format version                           : Version 4
File size                                : 247 MiB
Duration                                 : 23 min 56 s
Overall bit rate                         : 1 444 kb/s
Encoded date                             : UTC 2022-12-30 18:18:21
Writing application                      : mkvmerge v67.0.0 ('Under Stars') 64-bit
Writing library                          : libebml v1.4.2 + libmatroska v1.6.4
Attachments                              : corbel.ttf / corbelb.ttf / CUSHNGH.ttf / RuzickaTypeK.ttf / segoeprb.ttf

Video
ID                                       : 1
Format                                   : AV1
Format/Info                              : AOMedia Video 1
Format profile                           : Main@L3.0
Codec ID                                 : V_AV1
Duration                                 : 23 min 56 s
Bit rate                                 : 1 278 kb/s
Width                                    : 1 024 pixels
Height                                   : 576 pixels
Display aspect ratio                     : 16:9
Frame rate mode                          : Variable
Frame rate                               : 23.976 (24000/1001) FPS
Color space                              : YUV
Chroma subsampling                       : 4:2:0
Bit depth                                : 10 bits
Bits/(Pixel*Frame)                       : 0.090
Stream size                              : 219 MiB (89%)
Default                                  : No
Forced                                   : No
Color range                              : Limited

Audio
ID                                       : 2
Format                                   : Opus
Codec ID                                 : A_OPUS
Duration                                 : 23 min 55 s
Bit rate                                 : 156 kb/s
Channel(s)                               : 2 channels
Channel layout                           : L R
Sampling rate                            : 48.0 kHz
Frame rate                               : 50.001 FPS (960 SPF)
Compression mode                         : Lossy
Delay relative to video                  : 1 ms
Stream size                              : 26.7 MiB (11%)
Writing library                          : Lavc59.25.100 libopus
Language                                 : Japanese
Default                                  : Yes
Forced                                   : No

Text
ID                                       : 3
Format                                   : ASS
Codec ID                                 : S_TEXT/ASS
Codec ID/Info                            : Advanced Sub Station Alpha
Duration                                 : 23 min 47 s
Bit rate                                 : 129 b/s
Count of elements                        : 389
Compression mode                         : Lossless
Stream size                              : 22.6 KiB (0%)
Title                                    : Subs by KAA
Language                                 : English
Default                                  : No
Forced                                   : No

Other Files in this Torrent
Kino no Tabi 2003/[Breeze] Kino no Tabi (2003) 13 [576p DVD][AV1].mkv
beta
Anime DDL+NZB mirror
Current Time: 21/06/2024 08:37



About/FAQs

Discord