Kino no Tabi 2003/[Breeze] Kino no Tabi (2003) 07 [576p DVD][AV1].mkv


File Size254.5 MB (266,868,927 bytes)
DownloadAnonFiles | ClickNUpload | DownloadGG | KrakenFiles | MultiUp
  • BdUpload
  • DownAce
  • Fichier
  • FileCloud
  • Filerio
  • FilesCdn
  • IndiShare
  • Kbagi
  • Turbobit
  • UpToBox
  • Uppit
| ZippyShare
HashesCRC32: 1A63B5A7, MD5: 63B7781D382D9CE708582BD75B0E24A7, SHA1: BFFBB40793A4CF4D12774D367C52D25589B6512C, SHA256: 4887E63866592AD90774B16BA758530D26A01E19745FF63EAE1A5B37312B5CC4, ED2K: 15CC8518162C310E15E2BFA60F81E26E
Screenshots
screenshotscreenshotscreenshotscreenshotscreenshot
SubtitlesAll Attachments | Subs by KAA [eng, ASS]
Additional Info
General
Unique ID                                : 94502485879121008110291320974008063755 (0x47188448E65B29DE2701C1FBB657170B)
Complete name                            : [Breeze] Kino no Tabi (2003) 07 [576p DVD][AV1].mkv
Format                                   : Matroska
Format version                           : Version 4
File size                                : 255 MiB
Duration                                 : 24 min 21 s
Overall bit rate                         : 1 461 kb/s
Encoded date                             : UTC 2022-12-30 18:17:10
Writing application                      : mkvmerge v67.0.0 ('Under Stars') 64-bit
Writing library                          : libebml v1.4.2 + libmatroska v1.6.4
Attachments                              : corbel.ttf / corbelb.ttf / CUSHNGH.ttf / RuzickaTypeK.ttf / segoeprb.ttf

Video
ID                                       : 1
Format                                   : AV1
Format/Info                              : AOMedia Video 1
Format profile                           : Main@L3.0
Codec ID                                 : V_AV1
Duration                                 : 24 min 21 s
Bit rate                                 : 1 297 kb/s
Width                                    : 1 024 pixels
Height                                   : 576 pixels
Display aspect ratio                     : 16:9
Frame rate mode                          : Variable
Frame rate                               : 23.976 FPS
Color space                              : YUV
Chroma subsampling                       : 4:2:0
Bit depth                                : 10 bits
Bits/(Pixel*Frame)                       : 0.092
Stream size                              : 226 MiB (89%)
Default                                  : No
Forced                                   : No
Color range                              : Limited

Audio
ID                                       : 2
Format                                   : Opus
Codec ID                                 : A_OPUS
Duration                                 : 24 min 20 s
Bit rate                                 : 155 kb/s
Channel(s)                               : 2 channels
Channel layout                           : L R
Sampling rate                            : 48.0 kHz
Frame rate                               : 50.000 FPS (960 SPF)
Compression mode                         : Lossy
Delay relative to video                  : 2 ms
Stream size                              : 27.0 MiB (11%)
Writing library                          : Lavc59.25.100 libopus
Language                                 : Japanese
Default                                  : Yes
Forced                                   : No

Text
ID                                       : 3
Format                                   : ASS
Codec ID                                 : S_TEXT/ASS
Codec ID/Info                            : Advanced Sub Station Alpha
Duration                                 : 24 min 10 s
Bit rate                                 : 109 b/s
Count of elements                        : 342
Compression mode                         : Lossless
Stream size                              : 19.5 KiB (0%)
Title                                    : Subs by KAA
Language                                 : English
Default                                  : No
Forced                                   : No

Other Files in this Torrent
Kino no Tabi 2003/[Breeze] Kino no Tabi (2003) 07 [576p DVD][AV1].mkv
beta
Anime DDL+NZB mirror
Current Time: 12/07/2024 22:57



About/FAQs

Discord