Kino no Tabi 2003/[Breeze] Kino no Tabi (2003) 04 [576p DVD][AV1].mkv


File Size298.1 MB (312,591,623 bytes)
DownloadAnonFiles | ClickNUpload | DownloadGG | KrakenFiles | MultiUp
  • BdUpload
  • DownAce
  • Fichier
  • FileCloud
  • Filerio
  • FilesCdn
  • IndiShare
  • Kbagi
  • Turbobit
  • UpToBox
  • Uppit
| ZippyShare
HashesCRC32: 2D5A2245, MD5: 6B3BA77F898AE1361D4F51B36F025937, SHA1: E25F176049F011D219815DD811CB78E059116286, SHA256: 63C5BE946379C3B91A1C153714A10AC50E6D44D92410F78DA8EC76CE60F32A2F, ED2K: 2B196677AA701D1E629490CC65051584
Screenshots
screenshotscreenshotscreenshotscreenshotscreenshot
SubtitlesAll Attachments | Subs by KAA [eng, ASS]
Additional Info
General
Unique ID                                : 150080413360683606410404232208228313661 (0x70E86FABD59DDD44F63AA2385A206A3D)
Complete name                            : [Breeze] Kino no Tabi (2003) 04 [576p DVD][AV1].mkv
Format                                   : Matroska
Format version                           : Version 4
File size                                : 298 MiB
Duration                                 : 24 min 21 s
Overall bit rate                         : 1 712 kb/s
Encoded date                             : UTC 2022-12-30 18:16:33
Writing application                      : mkvmerge v67.0.0 ('Under Stars') 64-bit
Writing library                          : libebml v1.4.2 + libmatroska v1.6.4
Attachments                              : corbel.ttf / corbelb.ttf / CUSHNGH.ttf / RuzickaTypeK.ttf / segoeprb.ttf

Video
ID                                       : 1
Format                                   : AV1
Format/Info                              : AOMedia Video 1
Format profile                           : Main@L3.0
Codec ID                                 : V_AV1
Duration                                 : 24 min 21 s
Bit rate                                 : 1 547 kb/s
Width                                    : 1 024 pixels
Height                                   : 576 pixels
Display aspect ratio                     : 16:9
Frame rate mode                          : Variable
Frame rate                               : 23.976 FPS
Color space                              : YUV
Chroma subsampling                       : 4:2:0
Bit depth                                : 10 bits
Bits/(Pixel*Frame)                       : 0.109
Stream size                              : 269 MiB (90%)
Default                                  : No
Forced                                   : No
Color range                              : Limited

Audio
ID                                       : 2
Format                                   : Opus
Codec ID                                 : A_OPUS
Duration                                 : 24 min 20 s
Bit rate                                 : 155 kb/s
Channel(s)                               : 2 channels
Channel layout                           : L R
Sampling rate                            : 48.0 kHz
Frame rate                               : 50.000 FPS (960 SPF)
Compression mode                         : Lossy
Delay relative to video                  : 1 ms
Stream size                              : 27.0 MiB (9%)
Writing library                          : Lavc59.25.100 libopus
Language                                 : Japanese
Default                                  : Yes
Forced                                   : No

Text
ID                                       : 3
Format                                   : ASS
Codec ID                                 : S_TEXT/ASS
Codec ID/Info                            : Advanced Sub Station Alpha
Duration                                 : 24 min 13 s
Bit rate                                 : 143 b/s
Count of elements                        : 405
Compression mode                         : Lossless
Stream size                              : 25.5 KiB (0%)
Title                                    : Subs by KAA
Language                                 : English
Default                                  : No
Forced                                   : No

Other Files in this Torrent
Kino no Tabi 2003/[Breeze] Kino no Tabi (2003) 04 [576p DVD][AV1].mkv
beta
Anime DDL+NZB mirror
Current Time: 21/06/2024 06:41



About/FAQs

Discord