Movies/[Breeze] Kino no Tabi - Land of Illness -For You- [1080p][AV1].mkv


File Size653.6 MB (685,311,985 bytes)
DownloadClickNUpload | DownloadGG | KrakenFiles
MultiUp: Part1
  • BdUpload
  • DownAce
  • Fichier
  • FileCloud
  • Filerio
  • FilesCdn
  • IndiShare
  • Kbagi
  • Turbobit
  • UpToBox
  • Uppit
, Part2
  • BdUpload
  • DownAce
  • Fichier
  • FileCloud
  • Filerio
  • FilesCdn
  • IndiShare
  • Kbagi
  • Turbobit
  • UpToBox
  • Uppit

ZippyShare: Part1, Part2
HashesCRC32: F5C39813, MD5: D3671DD3CACA795C8837637D78C6B97D, SHA1: FFA30B732FFC7D4F19830ABFCDE277E582A7E553, SHA256: 011AB6399F283E2D425000AE2464AA22F28D4984BD1FEA6F7B95E8DE719B5C1B, ED2K: 6C32B34CC65CAEB622476374DD76C05B
Screenshots
screenshotscreenshotscreenshotscreenshotscreenshot
SubtitlesAll Attachments | eng [ASS]
Additional Info
General
Unique ID                                : 26464181581938136335932830664800741643 (0x13E8D0E3D18E23FC45E2C40C1DE6290B)
Complete name                            : [Breeze] Kino no Tabi - Land of Illness -For You- [1080p][AV1].mkv
Format                                   : Matroska
Format version                           : Version 4
File size                                : 654 MiB
Duration                                 : 28 min 58 s
Overall bit rate                         : 3 154 kb/s
Encoded date                             : UTC 2022-12-30 06:42:10
Writing application                      : mkvmerge v67.0.0 ('Under Stars') 64-bit
Writing library                          : libebml v1.4.2 + libmatroska v1.6.4
Attachments                              : 2022-12-28@17_35_30_1310_2022-12-28@17_07_28_9110_Blambot Pro Lite.ttf / 2022-12-28@17_35_30_1310_2022-12-28@17_07_28_9110_candarab.ttf / 2022-12-28@17_35_30_1310_2022-12-28@17_07_28_9110_candaraz.ttf / 2022-12-28@17_35_30_1310_2022-12-28@17_07_28_9110_LTe52140.ttf / 2022-12-28@17_35_30_1310_2022-12-28@17_07_28_9110_Nirmala.ttf / 2022-12-28@17_35_30_1310_2022-12-28@17_07_28_9110_TIMES.ttf / 2022-12-28@17_35_30_1310_2022-12-28@17_07_28_9110_timesbd.ttf / 2022-12-28@17_35_30_1310_2022-12-28@17_07_28_9110_TIMESBI.ttf / 2022-12-28@17_35_30_1310_2022-12-28@17_07_28_9110_TIMESI.ttf / 2022-12-28@17_35_30_1310_2022-12-28@17_07_28_9110_Virtue.ttf / Blambot Pro Lite.ttf / candarab.ttf / candaraz.ttf / LTe52140.ttf / Nirmala.ttf / TIMES.ttf / timesbd.ttf / TIMESBI.ttf / TIMESI.ttf / Virtue.ttf

Video
ID                                       : 1
Format                                   : AV1
Format/Info                              : AOMedia Video 1
Format profile                           : Main@L4.0
Codec ID                                 : V_AV1
Duration                                 : 28 min 57 s
Bit rate                                 : 2 846 kb/s
Width                                    : 1 920 pixels
Height                                   : 1 080 pixels
Display aspect ratio                     : 16:9
Frame rate mode                          : Variable
Frame rate                               : 23.976 (24000/1001) FPS
Color space                              : YUV
Chroma subsampling                       : 4:2:0
Bit depth                                : 10 bits
Bits/(Pixel*Frame)                       : 0.057
Stream size                              : 590 MiB (90%)
Default                                  : No
Forced                                   : No
Color range                              : Limited

Audio
ID                                       : 2
Format                                   : Opus
Codec ID                                 : A_OPUS
Duration                                 : 28 min 58 s
Bit rate                                 : 273 kb/s
Channel(s)                               : 6 channels
Channel layout                           : L R C Lb Rb LFE
Sampling rate                            : 48.0 kHz
Frame rate                               : 50.000 FPS (960 SPF)
Compression mode                         : Lossy
Stream size                              : 56.6 MiB (9%)
Writing library                          : Lavc59.25.100 libopus
Language                                 : Japanese
Default                                  : No
Forced                                   : No

Text
ID                                       : 3
Format                                   : ASS
Codec ID                                 : S_TEXT/ASS
Codec ID/Info                            : Advanced Sub Station Alpha
Duration                                 : 27 min 53 s
Bit rate                                 : 85 b/s
Count of elements                        : 312
Compression mode                         : Lossless
Stream size                              : 17.4 KiB (0%)
Language                                 : English
Default                                  : No
Forced                                   : No

Menu
00:00:00.000                             : :Chapter 01
00:03:19.032                             : :Chapter 02
00:09:00.573                             : :Chapter 03
00:16:53.012                             : :Chapter 04
00:24:36.758                             : :Chapter 05
00:26:26.585                             : :Chapter 06

Other Files in this Torrent
Movies/[Breeze] Kino no Tabi - Land of Illness -For You- [1080p][AV1].mkv
beta
Anime DDL+NZB mirror
Current Time: 21/06/2024 08:40



About/FAQs

Discord