Kino no Tabi 2017/[Breeze] Kino no Tabi (2017) 08 [1080p BluRay][AV1].mkv


File Size312.7 MB (327,851,847 bytes)
DownloadAnonFiles | ClickNUpload | DownloadGG | KrakenFiles | MultiUp
  • BdUpload
  • DownAce
  • Fichier
  • FileCloud
  • Filerio
  • FilesCdn
  • IndiShare
  • Kbagi
  • Turbobit
  • UpToBox
  • Uppit
| ZippyShare
HashesCRC32: 07D78C5D, MD5: 0AF485F30A0286FC2B7DE253749FC13D, SHA1: B8485F7D4CA66A759F4D7C4A1836AD5AE91CF408, SHA256: 92ED4744704718C9DBA2FEC677C69E19691D5D95C5051E9511ACEDDBDD5C00CF, ED2K: 7AAE1451F0BDA2AF7194A1DC857D76AB
Screenshots
screenshotscreenshotscreenshotscreenshotscreenshot
SubtitlesAll Attachments | und [ASS]
Additional Info
General
Unique ID                                : 309960369778624937109891946561945581650 (0xE930321E2DE5F14E19DC372DFC99B852)
Complete name                            : [Breeze] Kino no Tabi (2017) 08 [1080p BluRay][AV1].mkv
Format                                   : Matroska
Format version                           : Version 4
File size                                : 313 MiB
Duration                                 : 23 min 41 s
Overall bit rate                         : 1 846 kb/s
Encoded date                             : UTC 2022-12-29 20:24:36
Writing application                      : mkvmerge v67.0.0 ('Under Stars') 64-bit
Writing library                          : libebml v1.4.2 + libmatroska v1.6.4
Attachments                              : AGPmode.ttf / CASPER.ttf / LazurskiC.otf / ROMANUS.ttf / segoepr.ttf

Video
ID                                       : 1
Format                                   : AV1
Format/Info                              : AOMedia Video 1
Format profile                           : Main@L4.0
Codec ID                                 : V_AV1
Duration                                 : 23 min 40 s
Bit rate                                 : 1 686 kb/s
Width                                    : 1 920 pixels
Height                                   : 1 080 pixels
Display aspect ratio                     : 16:9
Frame rate mode                          : Variable
Frame rate                               : 23.976 FPS
Color space                              : YUV
Chroma subsampling                       : 4:2:0
Bit depth                                : 10 bits
Bits/(Pixel*Frame)                       : 0.034
Stream size                              : 286 MiB (91%)
Default                                  : No
Forced                                   : No
Color range                              : Limited

Audio
ID                                       : 2
Format                                   : Opus
Codec ID                                 : A_OPUS
Duration                                 : 23 min 41 s
Bit rate                                 : 155 kb/s
Channel(s)                               : 2 channels
Channel layout                           : L R
Sampling rate                            : 48.0 kHz
Frame rate                               : 50.000 FPS (960 SPF)
Compression mode                         : Lossy
Stream size                              : 26.2 MiB (8%)
Title                                    : LPCM->FLAC
Writing library                          : Lavc59.25.100 libopus
Language                                 : Japanese
Default                                  : No
Forced                                   : No

Text
ID                                       : 3
Format                                   : ASS
Codec ID                                 : S_TEXT/ASS
Codec ID/Info                            : Advanced Sub Station Alpha
Duration                                 : 23 min 19 s
Bit rate                                 : 94 b/s
Count of elements                        : 281
Compression mode                         : Lossless
Stream size                              : 16.1 KiB (0%)
Default                                  : No
Forced                                   : No

Menu
00:00:00.000                             : :Avant
00:00:37.037                             : :OP
00:02:07.002                             : :Part A
00:11:51.002                             : :Part B
00:22:02.988                             : :ED
00:23:35.039                             : :Next

Other Files in this Torrent
Kino no Tabi 2017/[Breeze] Kino no Tabi (2017) 08 [1080p BluRay][AV1].mkv
beta
Anime DDL+NZB mirror
Current Time: 21/06/2024 07:01



About/FAQs

Discord