Kino no Tabi 2003/[Breeze] Kino no Tabi (2003) 06 [576p DVD][AV1].mkv


File Size326.7 MB (342,576,880 bytes)
DownloadAnonFiles | ClickNUpload | DownloadGG | KrakenFiles | MultiUp
  • BdUpload
  • DownAce
  • Fichier
  • FileCloud
  • Filerio
  • FilesCdn
  • IndiShare
  • Kbagi
  • Turbobit
  • UpToBox
  • Uppit
| ZippyShare
HashesCRC32: 477DBCCA, MD5: 78B825A7AC1457C073710A9771461D91, SHA1: A8F0E09D9FB27638332711FCD7B46D51AF956829, SHA256: 36BEA2A11F5FB286497CE567E67864BB7F08923B3A2AD35BF77AB976DA134B6E, ED2K: 897533FEA988FBE78B907CA5C711CB85
Screenshots
screenshotscreenshotscreenshotscreenshotscreenshot
SubtitlesAll Attachments | Subs by KAA [eng, ASS]
Additional Info
General
Unique ID                                : 115500601247342908734915562230743729824 (0x56E49B4DA824197DC3E73ACC3B7686A0)
Complete name                            : [Breeze] Kino no Tabi (2003) 06 [576p DVD][AV1].mkv
Format                                   : Matroska
Format version                           : Version 4
File size                                : 327 MiB
Duration                                 : 24 min 21 s
Overall bit rate                         : 1 876 kb/s
Encoded date                             : UTC 2022-12-30 18:16:58
Writing application                      : mkvmerge v67.0.0 ('Under Stars') 64-bit
Writing library                          : libebml v1.4.2 + libmatroska v1.6.4
Attachments                              : corbel.ttf / corbelb.ttf / CUSHNGH.ttf / RuzickaTypeK.ttf / segoeprb.ttf

Video
ID                                       : 1
Format                                   : AV1
Format/Info                              : AOMedia Video 1
Format profile                           : Main@L3.0
Codec ID                                 : V_AV1
Duration                                 : 24 min 21 s
Bit rate                                 : 1 709 kb/s
Width                                    : 1 024 pixels
Height                                   : 576 pixels
Display aspect ratio                     : 16:9
Frame rate mode                          : Variable
Frame rate                               : 23.976 FPS
Color space                              : YUV
Chroma subsampling                       : 4:2:0
Bit depth                                : 10 bits
Bits/(Pixel*Frame)                       : 0.121
Stream size                              : 298 MiB (91%)
Default                                  : No
Forced                                   : No
Color range                              : Limited

Audio
ID                                       : 2
Format                                   : Opus
Codec ID                                 : A_OPUS
Duration                                 : 24 min 20 s
Bit rate                                 : 158 kb/s
Channel(s)                               : 2 channels
Channel layout                           : L R
Sampling rate                            : 48.0 kHz
Frame rate                               : 50.000 FPS (960 SPF)
Compression mode                         : Lossy
Delay relative to video                  : 1 ms
Stream size                              : 27.4 MiB (8%)
Writing library                          : Lavc59.25.100 libopus
Language                                 : Japanese
Default                                  : Yes
Forced                                   : No

Text
ID                                       : 3
Format                                   : ASS
Codec ID                                 : S_TEXT/ASS
Codec ID/Info                            : Advanced Sub Station Alpha
Duration                                 : 24 min 11 s
Bit rate                                 : 113 b/s
Count of elements                        : 339
Compression mode                         : Lossless
Stream size                              : 20.1 KiB (0%)
Title                                    : Subs by KAA
Language                                 : English
Default                                  : No
Forced                                   : No

Other Files in this Torrent
Kino no Tabi 2003/[Breeze] Kino no Tabi (2003) 06 [576p DVD][AV1].mkv
beta
Anime DDL+NZB mirror
Current Time: 21/06/2024 08:27



About/FAQs

Discord