Kino no Tabi 2017/[Breeze] Kino no Tabi (2017) 06 [1080p BluRay][AV1].mkv


File Size325.3 MB (341,075,114 bytes)
DownloadAnonFiles | ClickNUpload | DownloadGG | KrakenFiles | MultiUp
  • BdUpload
  • DownAce
  • Fichier
  • FileCloud
  • Filerio
  • FilesCdn
  • IndiShare
  • Kbagi
  • Turbobit
  • UpToBox
  • Uppit
| ZippyShare
HashesCRC32: FB53987C, MD5: 6CFF64DA93B7BD67ED26D67F7263DF07, SHA1: 652530512949E0D5D41CCB3DFF48C3F9F9094F0D, SHA256: 87612788F9FD6C30A8E4904E8813DC4598BAAB34240D9CAA4BCB36B89EC97F2E, ED2K: 1E63EB17CEC95674BE95278D16CEA172
Screenshots
screenshotscreenshotscreenshotscreenshotscreenshot
SubtitlesAll Attachments | und [ASS]
Additional Info
General
Unique ID                                : 197167986078250795840737135884957351404 (0x94552C3FA716537AD40C4DD493137DEC)
Complete name                            : [Breeze] Kino no Tabi (2017) 06 [1080p BluRay][AV1].mkv
Format                                   : Matroska
Format version                           : Version 4
File size                                : 325 MiB
Duration                                 : 23 min 41 s
Overall bit rate                         : 1 920 kb/s
Encoded date                             : UTC 2022-12-29 19:43:56
Writing application                      : mkvmerge v67.0.0 ('Under Stars') 64-bit
Writing library                          : libebml v1.4.2 + libmatroska v1.6.4
Attachments                              : AGPmode.ttf / CASPER.ttf / LazurskiC.otf / ROMANUS.ttf / segoepr.ttf

Video
ID                                       : 1
Format                                   : AV1
Format/Info                              : AOMedia Video 1
Format profile                           : Main@L4.0
Codec ID                                 : V_AV1
Duration                                 : 23 min 40 s
Bit rate                                 : 1 758 kb/s
Width                                    : 1 920 pixels
Height                                   : 1 080 pixels
Display aspect ratio                     : 16:9
Frame rate mode                          : Variable
Frame rate                               : 23.976 FPS
Color space                              : YUV
Chroma subsampling                       : 4:2:0
Bit depth                                : 10 bits
Bits/(Pixel*Frame)                       : 0.035
Stream size                              : 298 MiB (92%)
Default                                  : No
Forced                                   : No
Color range                              : Limited

Audio
ID                                       : 2
Format                                   : Opus
Codec ID                                 : A_OPUS
Duration                                 : 23 min 41 s
Bit rate                                 : 157 kb/s
Channel(s)                               : 2 channels
Channel layout                           : L R
Sampling rate                            : 48.0 kHz
Frame rate                               : 50.000 FPS (960 SPF)
Compression mode                         : Lossy
Stream size                              : 26.6 MiB (8%)
Title                                    : LPCM->FLAC
Writing library                          : Lavc59.25.100 libopus
Language                                 : Japanese
Default                                  : No
Forced                                   : No

Text
ID                                       : 3
Format                                   : ASS
Codec ID                                 : S_TEXT/ASS
Codec ID/Info                            : Advanced Sub Station Alpha
Duration                                 : 23 min 37 s
Bit rate                                 : 104 b/s
Count of elements                        : 353
Compression mode                         : Lossless
Stream size                              : 18.1 KiB (0%)
Default                                  : No
Forced                                   : No

Menu
00:00:00.000                             : :Avant
00:00:43.043                             : :OP
00:02:13.008                             : :Part A
00:13:30.018                             : :Part B
00:22:04.990                             : :ED
00:23:34.997                             : :Next

Other Files in this Torrent
Kino no Tabi 2017/[Breeze] Kino no Tabi (2017) 06 [1080p BluRay][AV1].mkv
beta
Anime DDL+NZB mirror
Current Time: 21/06/2024 06:46



About/FAQs

Discord