Kino no Tabi 2017/[Breeze] Kino no Tabi (2017) 02 [1080p BluRay][AV1].mkv


File Size401.0 MB (420,494,591 bytes)
DownloadClickNUpload | DownloadGG | KrakenFiles | MultiUp
  • BdUpload
  • DownAce
  • Fichier
  • FileCloud
  • Filerio
  • FilesCdn
  • IndiShare
  • Kbagi
  • Turbobit
  • UpToBox
  • Uppit
| ZippyShare
HashesCRC32: 97CF7335, MD5: 1804BB81DD32F6AC8DD85351E928B0EA, SHA1: CFDD7FE52F5501188C0AEFCE41EA243B8EE44825, SHA256: 18404F9E5429CF3C2955DDC94C9717FF3829066E3ACC25E46300CEFDE283ABA8, ED2K: E7A97AAF25B3F08F8BF543F27689D043
Screenshots
screenshotscreenshotscreenshotscreenshotscreenshot
SubtitlesAll Attachments | und [ASS]
Additional Info
General
Unique ID                                : 274554922841713664684909935597209571435 (0xCE8D5ACF73E9F5799591C9318758D06B)
Complete name                            : [Breeze] Kino no Tabi (2017) 02 [1080p BluRay][AV1].mkv
Format                                   : Matroska
Format version                           : Version 4
File size                                : 401 MiB
Duration                                 : 23 min 41 s
Overall bit rate                         : 2 367 kb/s
Encoded date                             : UTC 2022-12-29 19:43:14
Writing application                      : mkvmerge v67.0.0 ('Under Stars') 64-bit
Writing library                          : libebml v1.4.2 + libmatroska v1.6.4
Attachments                              : AGPmode.ttf / CASPER.ttf / LazurskiC.otf / ROMANUS.ttf / segoepr.ttf

Video
ID                                       : 1
Format                                   : AV1
Format/Info                              : AOMedia Video 1
Format profile                           : Main@L4.0
Codec ID                                 : V_AV1
Duration                                 : 23 min 40 s
Bit rate                                 : 2 208 kb/s
Width                                    : 1 920 pixels
Height                                   : 1 080 pixels
Display aspect ratio                     : 16:9
Frame rate mode                          : Variable
Frame rate                               : 23.976 (24000/1001) FPS
Color space                              : YUV
Chroma subsampling                       : 4:2:0
Bit depth                                : 10 bits
Bits/(Pixel*Frame)                       : 0.044
Stream size                              : 374 MiB (93%)
Default                                  : No
Forced                                   : No
Color range                              : Limited

Audio
ID                                       : 2
Format                                   : Opus
Codec ID                                 : A_OPUS
Duration                                 : 23 min 41 s
Bit rate                                 : 154 kb/s
Channel(s)                               : 2 channels
Channel layout                           : L R
Sampling rate                            : 48.0 kHz
Frame rate                               : 50.000 FPS (960 SPF)
Compression mode                         : Lossy
Stream size                              : 26.1 MiB (7%)
Title                                    : LPCM->FLAC
Writing library                          : Lavc59.25.100 libopus
Language                                 : Japanese
Default                                  : No
Forced                                   : No

Text
ID                                       : 3
Format                                   : ASS
Codec ID                                 : S_TEXT/ASS
Codec ID/Info                            : Advanced Sub Station Alpha
Duration                                 : 23 min 25 s
Bit rate                                 : 95 b/s
Count of elements                        : 302
Compression mode                         : Lossless
Stream size                              : 16.4 KiB (0%)
Default                                  : No
Forced                                   : No

Menu
00:00:00.000                             : :Avant
00:01:11.989                             : :OP
00:02:42.037                             : :Part A
00:10:47.063                             : :Part B
00:21:31.290                             : :ED
00:22:59.003                             : :Part C
00:23:35.039                             : :Next

Other Files in this Torrent
Kino no Tabi 2017/[Breeze] Kino no Tabi (2017) 02 [1080p BluRay][AV1].mkv
beta
Anime DDL+NZB mirror
Current Time: 21/06/2024 08:10



About/FAQs

Discord