Kino no Tabi 2003/[Breeze] Kino no Tabi (2003) 12 [576p DVD][AV1].mkv


File Size227.8 MB (238,881,416 bytes)
DownloadAnonFiles | ClickNUpload | DownloadGG | KrakenFiles | MultiUp
  • BdUpload
  • DownAce
  • Fichier
  • FileCloud
  • Filerio
  • FilesCdn
  • IndiShare
  • Kbagi
  • Turbobit
  • UpToBox
  • Uppit
| ZippyShare
HashesCRC32: 68755050, MD5: 63407CE87B5D5AF988A16FD32BD71F30, SHA1: 6D774CCC1BBDCE04D5C1E2D658C01EC23AE777E8, SHA256: 625A099D7A890BA0EC0E3DFC96C7720B7A313FB4FF9A98B942A57FED0C744D6C, ED2K: 8A54A74D9FBF82DFB47B6EE2D81F4B04
Screenshots
screenshotscreenshotscreenshotscreenshotscreenshot
SubtitlesAll Attachments | Subs by KAA [eng, ASS]
Additional Info
General
Unique ID                                : 9696464827114308249014986154724696061 (0x74B78A055DB4D142E58DE88DFAE1FFD)
Complete name                            : [Breeze] Kino no Tabi (2003) 12 [576p DVD][AV1].mkv
Format                                   : Matroska
Format version                           : Version 4
File size                                : 228 MiB
Duration                                 : 24 min 23 s
Overall bit rate                         : 1 306 kb/s
Encoded date                             : UTC 2022-12-30 18:18:09
Writing application                      : mkvmerge v67.0.0 ('Under Stars') 64-bit
Writing library                          : libebml v1.4.2 + libmatroska v1.6.4
Attachments                              : corbel.ttf / corbelb.ttf / CUSHNGH.ttf / RuzickaTypeK.ttf / segoeprb.ttf

Video
ID                                       : 1
Format                                   : AV1
Format/Info                              : AOMedia Video 1
Format profile                           : Main@L3.0
Codec ID                                 : V_AV1
Duration                                 : 24 min 23 s
Bit rate                                 : 1 141 kb/s
Width                                    : 1 024 pixels
Height                                   : 576 pixels
Display aspect ratio                     : 16:9
Frame rate mode                          : Variable
Frame rate                               : 23.976 (24000/1001) FPS
Color space                              : YUV
Chroma subsampling                       : 4:2:0
Bit depth                                : 10 bits
Bits/(Pixel*Frame)                       : 0.081
Stream size                              : 199 MiB (87%)
Default                                  : No
Forced                                   : No
Color range                              : Limited

Audio
ID                                       : 2
Format                                   : Opus
Codec ID                                 : A_OPUS
Duration                                 : 24 min 22 s
Bit rate                                 : 156 kb/s
Channel(s)                               : 2 channels
Channel layout                           : L R
Sampling rate                            : 48.0 kHz
Frame rate                               : 50.000 FPS (960 SPF)
Compression mode                         : Lossy
Delay relative to video                  : 1 ms
Stream size                              : 27.1 MiB (12%)
Writing library                          : Lavc59.25.100 libopus
Language                                 : Japanese
Default                                  : Yes
Forced                                   : No

Text
ID                                       : 3
Format                                   : ASS
Codec ID                                 : S_TEXT/ASS
Codec ID/Info                            : Advanced Sub Station Alpha
Duration                                 : 24 min 11 s
Bit rate                                 : 112 b/s
Count of elements                        : 314
Compression mode                         : Lossless
Stream size                              : 20.0 KiB (0%)
Title                                    : Subs by KAA
Language                                 : English
Default                                  : No
Forced                                   : No

Other Files in this Torrent
Kino no Tabi 2003/[Breeze] Kino no Tabi (2003) 12 [576p DVD][AV1].mkv
beta
Anime DDL+NZB mirror
Current Time: 21/06/2024 08:16



About/FAQs

Discord