Kino no Tabi 2003/[Breeze] Kino no Tabi (2003) 02 [576p DVD][AV1].mkv


File Size213.2 MB (223,563,985 bytes)
DownloadAnonFiles | ClickNUpload | DownloadGG | KrakenFiles | MultiUp
  • BdUpload
  • DownAce
  • Fichier
  • FileCloud
  • Filerio
  • FilesCdn
  • IndiShare
  • Kbagi
  • Turbobit
  • UpToBox
  • Uppit
| ZippyShare
HashesCRC32: 00ACCC03, MD5: 80F2A41450D308F5E987C9E21589BDFB, SHA1: 7845C032B51A7194D7ACA8ACC2DDA5419F4D655E, SHA256: 81D235AADE09F3C940C96A6BFE9819168487DE12332E3FC7AB4D8F5C272CDD1D, ED2K: EA2FC5D32FD5D1EF9399661D23EF0FA3
Screenshots
screenshotscreenshotscreenshotscreenshotscreenshot
SubtitlesAll Attachments | Subs by KAA [eng, ASS]
Additional Info
General
Unique ID                                : 36612740212899136837508818082644784620 (0x1B8B5B763106C6E288ACEE0FC14A75EC)
Complete name                            : [Breeze] Kino no Tabi (2003) 02 [576p DVD][AV1].mkv
Format                                   : Matroska
Format version                           : Version 4
File size                                : 213 MiB
Duration                                 : 24 min 21 s
Overall bit rate                         : 1 224 kb/s
Encoded date                             : UTC 2022-12-30 18:16:09
Writing application                      : mkvmerge v67.0.0 ('Under Stars') 64-bit
Writing library                          : libebml v1.4.2 + libmatroska v1.6.4
Attachments                              : corbel.ttf / corbelb.ttf / CUSHNGH.ttf / RuzickaTypeK.ttf / segoeprb.ttf

Video
ID                                       : 1
Format                                   : AV1
Format/Info                              : AOMedia Video 1
Format profile                           : Main@L3.0
Codec ID                                 : V_AV1
Duration                                 : 24 min 21 s
Bit rate                                 : 1 066 kb/s
Width                                    : 1 024 pixels
Height                                   : 576 pixels
Display aspect ratio                     : 16:9
Frame rate mode                          : Variable
Frame rate                               : 23.976 FPS
Color space                              : YUV
Chroma subsampling                       : 4:2:0
Bit depth                                : 10 bits
Bits/(Pixel*Frame)                       : 0.075
Stream size                              : 186 MiB (87%)
Default                                  : No
Forced                                   : No
Color range                              : Limited

Audio
ID                                       : 2
Format                                   : Opus
Codec ID                                 : A_OPUS
Duration                                 : 24 min 21 s
Bit rate                                 : 149 kb/s
Channel(s)                               : 2 channels
Channel layout                           : L R
Sampling rate                            : 48.0 kHz
Frame rate                               : 50.000 FPS (960 SPF)
Compression mode                         : Lossy
Delay relative to video                  : 1 ms
Stream size                              : 25.9 MiB (12%)
Writing library                          : Lavc59.25.100 libopus
Language                                 : Japanese
Default                                  : Yes
Forced                                   : No

Text
ID                                       : 3
Format                                   : ASS
Codec ID                                 : S_TEXT/ASS
Codec ID/Info                            : Advanced Sub Station Alpha
Duration                                 : 24 min 12 s
Bit rate                                 : 107 b/s
Count of elements                        : 298
Compression mode                         : Lossless
Stream size                              : 19.0 KiB (0%)
Title                                    : Subs by KAA
Language                                 : English
Default                                  : No
Forced                                   : No

Other Files in this Torrent
Kino no Tabi 2003/[Breeze] Kino no Tabi (2003) 02 [576p DVD][AV1].mkv
beta
Anime DDL+NZB mirror
Current Time: 21/06/2024 06:54



About/FAQs

Discord