Kino no Tabi 2017/[Breeze] Kino no Tabi (2017) 01 [1080p BluRay][AV1].mkv


File Size428.7 MB (449,562,086 bytes)
DownloadClickNUpload | DownloadGG | KrakenFiles | MultiUp
  • BdUpload
  • DownAce
  • Fichier
  • FileCloud
  • Filerio
  • FilesCdn
  • IndiShare
  • Kbagi
  • Turbobit
  • UpToBox
  • Uppit
| ZippyShare
HashesCRC32: 4D2E8100, MD5: 8B83D239FB697AED3748F6400E332843, SHA1: E4550725E48FAE33A6910611C7F9E3015F9ECE95, SHA256: C96000C36C6156462388C802D52C7E16DC3B5C0CE4DBD58925AEEF4DE43E2174, ED2K: E2B81092C49B4E84716C3011D1A3A2D8
Screenshots
screenshotscreenshotscreenshotscreenshotscreenshot
SubtitlesAll Attachments | nob [ASS]
Additional Info
General
Unique ID                                : 306297295765721089708599668149769722395 (0xE66EB6A012690F9759DC6D941953DA1B)
Complete name                            : [Breeze] Kino no Tabi (2017) 01 [1080p BluRay][AV1].mkv
Format                                   : Matroska
Format version                           : Version 4
File size                                : 429 MiB
Duration                                 : 23 min 42 s
Overall bit rate                         : 2 529 kb/s
Movie name                               : EP1 «A Country Where People Can Kill Others»
Encoded date                             : UTC 2022-12-29 19:43:06
Writing application                      : mkvmerge v67.0.0 ('Under Stars') 64-bit
Writing library                          : libebml v1.4.2 + libmatroska v1.6.4
Attachments                              : AGPmode.ttf / CASPER.ttf / LazurskiC.otf / ROMANUS.ttf / segoepr.ttf

Video
ID                                       : 1
Format                                   : AV1
Format/Info                              : AOMedia Video 1
Format profile                           : Main@L4.0
Codec ID                                 : V_AV1
Duration                                 : 23 min 41 s
Bit rate                                 : 2 367 kb/s
Width                                    : 1 920 pixels
Height                                   : 1 080 pixels
Display aspect ratio                     : 16:9
Frame rate mode                          : Variable
Frame rate                               : 23.976 (24000/1001) FPS
Color space                              : YUV
Chroma subsampling                       : 4:2:0
Bit depth                                : 10 bits
Bits/(Pixel*Frame)                       : 0.048
Stream size                              : 401 MiB (94%)
Default                                  : Yes
Forced                                   : No
Color range                              : Limited

Audio
ID                                       : 2
Format                                   : Opus
Codec ID                                 : A_OPUS
Duration                                 : 23 min 42 s
Bit rate                                 : 159 kb/s
Channel(s)                               : 2 channels
Channel layout                           : L R
Sampling rate                            : 48.0 kHz
Frame rate                               : 50.000 FPS (960 SPF)
Compression mode                         : Lossy
Stream size                              : 26.9 MiB (6%)
Title                                    : LPCM->FLAC
Writing library                          : Lavc59.25.100 libopus
Language                                 : Japanese
Default                                  : No
Forced                                   : No

Text
ID                                       : 3
Format                                   : ASS
Codec ID                                 : S_TEXT/ASS
Codec ID/Info                            : Advanced Sub Station Alpha
Duration                                 : 23 min 34 s
Bit rate                                 : 113 b/s
Count of elements                        : 364
Compression mode                         : Lossless
Stream size                              : 19.6 KiB (0%)
Language                                 : Norwegian Bokmal
Default                                  : No
Forced                                   : No

Menu
00:00:00.000                             : en:Avant
00:02:10.005                             : en:Part A
00:11:23.016                             : en:Part B
00:21:00.009                             : en:ED
00:22:30.015                             : en:Part C
00:23:35.998                             : en:Next

Other Files in this Torrent
Kino no Tabi 2017/[Breeze] Kino no Tabi (2017) 01 [1080p BluRay][AV1].mkv
beta
Anime DDL+NZB mirror
Current Time: 21/06/2024 06:37



About/FAQs

Discord