Kino no Tabi 2017/[Breeze] Kino no Tabi (2017) 03 [1080p BluRay][AV1].mkv


File Size404.8 MB (424,430,982 bytes)
DownloadClickNUpload | DownloadGG | KrakenFiles | MultiUp
  • BdUpload
  • DownAce
  • Fichier
  • FileCloud
  • Filerio
  • FilesCdn
  • IndiShare
  • Kbagi
  • Turbobit
  • UpToBox
  • Uppit
| ZippyShare
HashesCRC32: BA1F4223, MD5: 9225E3FFFB11DD9BAD52B56EDFD20C12, SHA1: 8532EEBE9B773BBF7414AE0AD7D57F9C468F404C, SHA256: 34125D7A98A4EEB83CB91B960289D8835886F9D005408E7EF2EBA73F34C90217, ED2K: 590921D675D3A6E06ABFF292D5D6A044
Screenshots
screenshotscreenshotscreenshotscreenshotscreenshot
SubtitlesAll Attachments | und [ASS]
Additional Info
General
Unique ID                                : 113217575708319245405742181846621398300 (0x552CE97429C04CAF9D0EE247EDF0A51C)
Complete name                            : [Breeze] Kino no Tabi (2017) 03 [1080p BluRay][AV1].mkv
Format                                   : Matroska
Format version                           : Version 4
File size                                : 405 MiB
Duration                                 : 23 min 40 s
Overall bit rate                         : 2 390 kb/s
Encoded date                             : UTC 2022-12-29 19:43:28
Writing application                      : mkvmerge v67.0.0 ('Under Stars') 64-bit
Writing library                          : libebml v1.4.2 + libmatroska v1.6.4
Attachments                              : AGPmode.ttf / CASPER.ttf / LazurskiC.otf / ROMANUS.ttf / segoepr.ttf

Video
ID                                       : 1
Format                                   : AV1
Format/Info                              : AOMedia Video 1
Format profile                           : Main@L4.0
Codec ID                                 : V_AV1
Duration                                 : 23 min 40 s
Bit rate                                 : 2 229 kb/s
Width                                    : 1 920 pixels
Height                                   : 1 080 pixels
Display aspect ratio                     : 16:9
Frame rate mode                          : Variable
Frame rate                               : 23.976 (24000/1001) FPS
Color space                              : YUV
Chroma subsampling                       : 4:2:0
Bit depth                                : 10 bits
Bits/(Pixel*Frame)                       : 0.045
Stream size                              : 377 MiB (93%)
Default                                  : No
Forced                                   : No
Color range                              : Limited

Audio
ID                                       : 2
Format                                   : Opus
Codec ID                                 : A_OPUS
Duration                                 : 23 min 40 s
Bit rate                                 : 156 kb/s
Channel(s)                               : 2 channels
Channel layout                           : L R
Sampling rate                            : 48.0 kHz
Frame rate                               : 50.000 FPS (960 SPF)
Compression mode                         : Lossy
Stream size                              : 26.4 MiB (7%)
Title                                    : LPCM->FLAC
Writing library                          : Lavc59.25.100 libopus
Language                                 : Japanese
Default                                  : No
Forced                                   : No

Text
ID                                       : 3
Format                                   : ASS
Codec ID                                 : S_TEXT/ASS
Codec ID/Info                            : Advanced Sub Station Alpha
Duration                                 : 23 min 25 s
Bit rate                                 : 97 b/s
Count of elements                        : 296
Compression mode                         : Lossless
Stream size                              : 16.7 KiB (0%)
Default                                  : No
Forced                                   : No

Menu
00:00:00.000                             : :Avant
00:01:41.018                             : :OP
00:03:10.982                             : :Part A
00:11:14.966                             : :Part B
00:22:04.949                             : :ED
00:23:34.955                             : :Next

Other Files in this Torrent
Kino no Tabi 2017/[Breeze] Kino no Tabi (2017) 03 [1080p BluRay][AV1].mkv
beta
Anime DDL+NZB mirror
Current Time: 21/06/2024 06:52



About/FAQs

Discord