Kino no Tabi 2017/[Breeze] Kino no Tabi (2017) 11 [1080p BluRay][AV1].mkv


File Size280.2 MB (293,783,615 bytes)
DownloadAnonFiles | ClickNUpload | DownloadGG | KrakenFiles | MultiUp
  • BdUpload
  • DownAce
  • Fichier
  • FileCloud
  • Filerio
  • FilesCdn
  • IndiShare
  • Kbagi
  • Turbobit
  • UpToBox
  • Uppit
| ZippyShare
HashesCRC32: B55A139E, MD5: FF440499D338E6E55CB06BC8F6F70E20, SHA1: E150C53EE9BD16B2251FCB9CFE3C6BAD5478F3B5, SHA256: E47B4C477D63DF45D39CB10AC55472FCAC8EB04405085C186F8ED65BCDF5B0F0, ED2K: AC0598E9E0C916EDC1F7850136866636
Screenshots
screenshotscreenshotscreenshotscreenshotscreenshot
SubtitlesAll Attachments | und [ASS]
Additional Info
General
Unique ID                                : 234676779364138306698181816416029404377 (0xB08D1A89A81FA62685BE5EF717AC6CD9)
Complete name                            : [Breeze] Kino no Tabi (2017) 11 [1080p BluRay][AV1].mkv
Format                                   : Matroska
Format version                           : Version 4
File size                                : 280 MiB
Duration                                 : 23 min 41 s
Overall bit rate                         : 1 654 kb/s
Encoded date                             : UTC 2022-12-30 05:22:27
Writing application                      : mkvmerge v67.0.0 ('Under Stars') 64-bit
Writing library                          : libebml v1.4.2 + libmatroska v1.6.4
Attachments                              : AGPmode.ttf / CASPER.ttf / LazurskiC.otf / ROMANUS.ttf / segoepr.ttf

Video
ID                                       : 1
Format                                   : AV1
Format/Info                              : AOMedia Video 1
Format profile                           : Main@L4.0
Codec ID                                 : V_AV1
Duration                                 : 23 min 40 s
Bit rate                                 : 1 502 kb/s
Width                                    : 1 920 pixels
Height                                   : 1 080 pixels
Display aspect ratio                     : 16:9
Frame rate mode                          : Variable
Frame rate                               : 23.976 (24000/1001) FPS
Color space                              : YUV
Chroma subsampling                       : 4:2:0
Bit depth                                : 10 bits
Bits/(Pixel*Frame)                       : 0.030
Stream size                              : 254 MiB (91%)
Default                                  : No
Forced                                   : No
Color range                              : Limited

Audio
ID                                       : 2
Format                                   : Opus
Codec ID                                 : A_OPUS
Duration                                 : 23 min 41 s
Bit rate                                 : 147 kb/s
Channel(s)                               : 2 channels
Channel layout                           : L R
Sampling rate                            : 48.0 kHz
Frame rate                               : 50.000 FPS (960 SPF)
Compression mode                         : Lossy
Stream size                              : 24.9 MiB (9%)
Title                                    : LPCM->FLAC
Writing library                          : Lavc59.25.100 libopus
Language                                 : Japanese
Default                                  : No
Forced                                   : No

Text
ID                                       : 3
Format                                   : ASS
Codec ID                                 : S_TEXT/ASS
Codec ID/Info                            : Advanced Sub Station Alpha
Duration                                 : 23 min 39 s
Bit rate                                 : 105 b/s
Count of elements                        : 332
Compression mode                         : Lossless
Stream size                              : 18.3 KiB (0%)
Default                                  : No
Forced                                   : No

Menu
00:00:00.000                             : :OP
00:00:36.036                             : :Part A
00:11:40.033                             : :Part B
00:23:35.080                             : :Next

Other Files in this Torrent
Kino no Tabi 2017/[Breeze] Kino no Tabi (2017) 11 [1080p BluRay][AV1].mkv
beta
Anime DDL+NZB mirror
Current Time: 21/06/2024 07:29



About/FAQs

Discord