Kino no Tabi 2003/[Breeze] Kino no Tabi (2003) 05 [576p DVD][AV1].mkv


File Size268.7 MB (281,723,636 bytes)
DownloadAnonFiles | ClickNUpload | DownloadGG | KrakenFiles | MultiUp
  • BdUpload
  • DownAce
  • Fichier
  • FileCloud
  • Filerio
  • FilesCdn
  • IndiShare
  • Kbagi
  • Turbobit
  • UpToBox
  • Uppit
| ZippyShare
HashesCRC32: A07937EB, MD5: DFAA3274544329B033BE4740CF3EB7C0, SHA1: FF8818BF5B4F666EE539843C9359EDC378161161, SHA256: 830564E0D5759AD53EE3E33A226127CA2B9F9FDBB78A1BD693AE22A19EAFFAB3, ED2K: 212F395CD32FC04980D20CE05D7E6060
Screenshots
screenshotscreenshotscreenshotscreenshotscreenshot
SubtitlesAll Attachments | Subs by KAA [eng, ASS]
Additional Info
General
Unique ID                                : 37785242336451265181478837374341041392 (0x1C6D2C4793925A26D0A59FE4831B4CF0)
Complete name                            : [Breeze] Kino no Tabi (2003) 05 [576p DVD][AV1].mkv
Format                                   : Matroska
Format version                           : Version 4
File size                                : 269 MiB
Duration                                 : 24 min 21 s
Overall bit rate                         : 1 542 kb/s
Encoded date                             : UTC 2022-12-30 18:16:46
Writing application                      : mkvmerge v67.0.0 ('Under Stars') 64-bit
Writing library                          : libebml v1.4.2 + libmatroska v1.6.4
Attachments                              : corbel.ttf / corbelb.ttf / CUSHNGH.ttf / RuzickaTypeK.ttf / segoeprb.ttf

Video
ID                                       : 1
Format                                   : AV1
Format/Info                              : AOMedia Video 1
Format profile                           : Main@L3.0
Codec ID                                 : V_AV1
Duration                                 : 24 min 21 s
Bit rate                                 : 1 376 kb/s
Width                                    : 1 024 pixels
Height                                   : 576 pixels
Display aspect ratio                     : 16:9
Frame rate mode                          : Variable
Frame rate                               : 23.976 FPS
Color space                              : YUV
Chroma subsampling                       : 4:2:0
Bit depth                                : 10 bits
Bits/(Pixel*Frame)                       : 0.097
Stream size                              : 240 MiB (89%)
Default                                  : No
Forced                                   : No
Color range                              : Limited

Audio
ID                                       : 2
Format                                   : Opus
Codec ID                                 : A_OPUS
Duration                                 : 24 min 20 s
Bit rate                                 : 157 kb/s
Channel(s)                               : 2 channels
Channel layout                           : L R
Sampling rate                            : 48.0 kHz
Frame rate                               : 50.001 FPS (960 SPF)
Compression mode                         : Lossy
Stream size                              : 27.4 MiB (10%)
Writing library                          : Lavc59.25.100 libopus
Language                                 : Japanese
Default                                  : Yes
Forced                                   : No

Text
ID                                       : 3
Format                                   : ASS
Codec ID                                 : S_TEXT/ASS
Codec ID/Info                            : Advanced Sub Station Alpha
Duration                                 : 24 min 12 s
Bit rate                                 : 148 b/s
Count of elements                        : 427
Compression mode                         : Lossless
Stream size                              : 26.4 KiB (0%)
Title                                    : Subs by KAA
Language                                 : English
Default                                  : No
Forced                                   : No

Other Files in this Torrent
Kino no Tabi 2003/[Breeze] Kino no Tabi (2003) 05 [576p DVD][AV1].mkv
beta
Anime DDL+NZB mirror
Current Time: 21/06/2024 07:21



About/FAQs

Discord