Kino no Tabi 2017/[Breeze] Kino no Tabi (2017) 05 [1080p BluRay][AV1].mkv


File Size301.7 MB (316,343,347 bytes)
DownloadAnonFiles | ClickNUpload | DownloadGG | KrakenFiles | MultiUp
  • BdUpload
  • DownAce
  • Fichier
  • FileCloud
  • Filerio
  • FilesCdn
  • IndiShare
  • Kbagi
  • Turbobit
  • UpToBox
  • Uppit
| ZippyShare
HashesCRC32: 87F9846B, MD5: D5F5E47E44AFD425858C716383A21CD6, SHA1: 2AB68A451B490DC00297794451DB0DFFE9D1F0B8, SHA256: D1B8D57947AF4268E3315ECF25DF92EF660A4A0C2BC78FD915C336895291697F, ED2K: 063BA54A212FAF4532BD5864A1DB09FA
Screenshots
screenshotscreenshotscreenshotscreenshotscreenshot
SubtitlesAll Attachments | und [ASS]
Additional Info
General
Unique ID                                : 139010855884818906528926782533314597735 (0x68948459BDD527AFA0FF8FAA34C0D367)
Complete name                            : [Breeze] Kino no Tabi (2017) 05 [1080p BluRay][AV1].mkv
Format                                   : Matroska
Format version                           : Version 4
File size                                : 302 MiB
Duration                                 : 23 min 42 s
Overall bit rate                         : 1 780 kb/s
Encoded date                             : UTC 2022-12-29 19:43:48
Writing application                      : mkvmerge v67.0.0 ('Under Stars') 64-bit
Writing library                          : libebml v1.4.2 + libmatroska v1.6.4
Attachments                              : AGPmode.ttf / CASPER.ttf / LazurskiC.otf / ROMANUS.ttf / segoepr.ttf

Video
ID                                       : 1
Format                                   : AV1
Format/Info                              : AOMedia Video 1
Format profile                           : Main@L4.0
Codec ID                                 : V_AV1
Duration                                 : 23 min 41 s
Bit rate                                 : 1 620 kb/s
Width                                    : 1 920 pixels
Height                                   : 1 080 pixels
Display aspect ratio                     : 16:9
Frame rate mode                          : Variable
Frame rate                               : 23.976 FPS
Color space                              : YUV
Chroma subsampling                       : 4:2:0
Bit depth                                : 10 bits
Bits/(Pixel*Frame)                       : 0.033
Stream size                              : 275 MiB (91%)
Default                                  : No
Forced                                   : No
Color range                              : Limited

Audio
ID                                       : 2
Format                                   : Opus
Codec ID                                 : A_OPUS
Duration                                 : 23 min 42 s
Bit rate                                 : 155 kb/s
Channel(s)                               : 2 channels
Channel layout                           : L R
Sampling rate                            : 48.0 kHz
Frame rate                               : 50.000 FPS (960 SPF)
Compression mode                         : Lossy
Stream size                              : 26.2 MiB (9%)
Title                                    : LPCM->FLAC
Writing library                          : Lavc59.25.100 libopus
Language                                 : Japanese
Default                                  : No
Forced                                   : No

Text
ID                                       : 3
Format                                   : ASS
Codec ID                                 : S_TEXT/ASS
Codec ID/Info                            : Advanced Sub Station Alpha
Duration                                 : 23 min 31 s
Bit rate                                 : 121 b/s
Count of elements                        : 366
Compression mode                         : Lossless
Stream size                              : 20.8 KiB (0%)
Default                                  : No
Forced                                   : No

Menu
00:00:00.000                             : :OP
00:01:31.008                             : :Part A
00:09:23.021                             : :Part B
00:22:02.655                             : :ED
00:23:35.998                             : :Next

Other Files in this Torrent
Kino no Tabi 2017/[Breeze] Kino no Tabi (2017) 05 [1080p BluRay][AV1].mkv
beta
Anime DDL+NZB mirror
Current Time: 21/06/2024 07:38



About/FAQs

Discord