Kino no Tabi 2017/[Breeze] Kino no Tabi (2017) 12 [1080p BluRay][AV1].mkv


File Size518.3 MB (543,523,030 bytes)
DownloadClickNUpload | DownloadGG | KrakenFiles
MultiUp: Part1
  • BdUpload
  • DownAce
  • Fichier
  • FileCloud
  • Filerio
  • FilesCdn
  • IndiShare
  • Kbagi
  • Turbobit
  • UpToBox
  • Uppit
, Part2
  • BdUpload
  • DownAce
  • Fichier
  • FileCloud
  • Filerio
  • FilesCdn
  • IndiShare
  • Kbagi
  • Turbobit
  • UpToBox
  • Uppit

ZippyShare: Part1, Part2
HashesCRC32: 9ED7BFA6, MD5: E03A933203CA5A5E5586805C2744269A, SHA1: A9D93BFB677783E8FC6B6993F6CEA6066309EC99, SHA256: 7606F119065B474BB888963550F0C0DC7E131268EE435E12F843894C568D75AD, ED2K: 7B4683097D1D9D08F40FB24CCF5FF90D
Screenshots
screenshotscreenshotscreenshotscreenshotscreenshot
SubtitlesAll Attachments | und [ASS]
Additional Info
General
Unique ID                                : 231939634548612699516188760898478025108 (0xAE7DF2E110FED555E1FB7023C5B42994)
Complete name                            : [Breeze] Kino no Tabi (2017) 12 [1080p BluRay][AV1].mkv
Format                                   : Matroska
Format version                           : Version 4
File size                                : 518 MiB
Duration                                 : 23 min 41 s
Overall bit rate                         : 3 060 kb/s
Encoded date                             : UTC 2022-12-30 05:22:46
Writing application                      : mkvmerge v67.0.0 ('Under Stars') 64-bit
Writing library                          : libebml v1.4.2 + libmatroska v1.6.4
Attachments                              : AGPmode.ttf / CASPER.ttf / LazurskiC.otf / ROMANUS.ttf / segoepr.ttf

Video
ID                                       : 1
Format                                   : AV1
Format/Info                              : AOMedia Video 1
Format profile                           : Main@L4.0
Codec ID                                 : V_AV1
Duration                                 : 23 min 40 s
Bit rate                                 : 2 904 kb/s
Width                                    : 1 920 pixels
Height                                   : 1 080 pixels
Display aspect ratio                     : 16:9
Frame rate mode                          : Variable
Frame rate                               : 23.976 FPS
Color space                              : YUV
Chroma subsampling                       : 4:2:0
Bit depth                                : 10 bits
Bits/(Pixel*Frame)                       : 0.058
Stream size                              : 492 MiB (95%)
Default                                  : No
Forced                                   : No
Color range                              : Limited

Audio
ID                                       : 2
Format                                   : Opus
Codec ID                                 : A_OPUS
Duration                                 : 23 min 41 s
Bit rate                                 : 150 kb/s
Channel(s)                               : 2 channels
Channel layout                           : L R
Sampling rate                            : 48.0 kHz
Frame rate                               : 50.000 FPS (960 SPF)
Compression mode                         : Lossy
Stream size                              : 25.5 MiB (5%)
Title                                    : LPCM->FLAC
Writing library                          : Lavc59.25.100 libopus
Language                                 : Japanese
Default                                  : No
Forced                                   : No

Text
ID                                       : 3
Format                                   : ASS
Codec ID                                 : S_TEXT/ASS
Codec ID/Info                            : Advanced Sub Station Alpha
Duration                                 : 23 min 31 s
Bit rate                                 : 81 b/s
Count of elements                        : 262
Compression mode                         : Lossless
Stream size                              : 14.1 KiB (0%)
Default                                  : No
Forced                                   : No

Menu
00:00:00.000                             : :OP
00:01:30.007                             : :Part A
00:18:38.951                             : :Part B
00:21:26.994                             : :ED
00:22:57.001                             : :Epilogue

Other Files in this Torrent
Kino no Tabi 2017/[Breeze] Kino no Tabi (2017) 12 [1080p BluRay][AV1].mkv
beta
Anime DDL+NZB mirror
Current Time: 21/06/2024 08:21



About/FAQs

Discord