Kino no Tabi 2017/[Breeze] Kino no Tabi (2017) 07 [1080p BluRay][AV1].mkv


File Size563.0 MB (590,390,748 bytes)
DownloadClickNUpload | DownloadGG | KrakenFiles
MultiUp: Part1
  • BdUpload
  • DownAce
  • Fichier
  • FileCloud
  • Filerio
  • FilesCdn
  • IndiShare
  • Kbagi
  • Turbobit
  • UpToBox
  • Uppit
, Part2
  • BdUpload
  • DownAce
  • Fichier
  • FileCloud
  • Filerio
  • FilesCdn
  • IndiShare
  • Kbagi
  • Turbobit
  • UpToBox
  • Uppit

ZippyShare: Part1, Part2
HashesCRC32: 1995C3C8, MD5: 609370971C28FC026C825129AEB2EF9E, SHA1: F2B383BBD7E73725B60841658F4E58897B2AB9BF, SHA256: 86975FBA602F6E84C673FD6D0A11BB69EF21D5D9BF6A8474CC571F6F4117E944, ED2K: A3C4EA65F0F1B56F984678777C1040DE
Screenshots
screenshotscreenshotscreenshotscreenshotscreenshot
SubtitlesAll Attachments | und [ASS]
Additional Info
General
Unique ID                                : 191464555615112169181808497209580009790 (0x900ABB6A907DB7F3D8FB74C38C3D393E)
Complete name                            : [Breeze] Kino no Tabi (2017) 07 [1080p BluRay][AV1].mkv
Format                                   : Matroska
Format version                           : Version 4
File size                                : 563 MiB
Duration                                 : 23 min 41 s
Overall bit rate                         : 3 324 kb/s
Encoded date                             : UTC 2022-12-29 19:44:09
Writing application                      : mkvmerge v67.0.0 ('Under Stars') 64-bit
Writing library                          : libebml v1.4.2 + libmatroska v1.6.4
Attachments                              : AGPmode.ttf / CASPER.ttf / LazurskiC.otf / ROMANUS.ttf / segoepr.ttf

Video
ID                                       : 1
Format                                   : AV1
Format/Info                              : AOMedia Video 1
Format profile                           : Main@L4.0
Codec ID                                 : V_AV1
Duration                                 : 23 min 40 s
Bit rate                                 : 3 165 kb/s
Width                                    : 1 920 pixels
Height                                   : 1 080 pixels
Display aspect ratio                     : 16:9
Frame rate mode                          : Variable
Frame rate                               : 23.976 FPS
Color space                              : YUV
Chroma subsampling                       : 4:2:0
Bit depth                                : 10 bits
Bits/(Pixel*Frame)                       : 0.064
Stream size                              : 536 MiB (95%)
Default                                  : No
Forced                                   : No
Color range                              : Limited

Audio
ID                                       : 2
Format                                   : Opus
Codec ID                                 : A_OPUS
Duration                                 : 23 min 41 s
Bit rate                                 : 154 kb/s
Channel(s)                               : 2 channels
Channel layout                           : L R
Sampling rate                            : 48.0 kHz
Frame rate                               : 50.000 FPS (960 SPF)
Compression mode                         : Lossy
Stream size                              : 26.1 MiB (5%)
Title                                    : LPCM->FLAC
Writing library                          : Lavc59.25.100 libopus
Language                                 : Japanese
Default                                  : No
Forced                                   : No

Text
ID                                       : 3
Format                                   : ASS
Codec ID                                 : S_TEXT/ASS
Codec ID/Info                            : Advanced Sub Station Alpha
Duration                                 : 23 min 35 s
Bit rate                                 : 118 b/s
Count of elements                        : 324
Compression mode                         : Lossless
Stream size                              : 20.5 KiB (0%)
Default                                  : No
Forced                                   : No

Menu
00:00:00.000                             : :Avant
00:01:34.011                             : :OP
00:03:03.975                             : :Part A
00:10:36.010                             : :Part B
00:22:04.990                             : :ED
00:23:34.997                             : :Next

Other Files in this Torrent
Kino no Tabi 2017/[Breeze] Kino no Tabi (2017) 07 [1080p BluRay][AV1].mkv
beta
Anime DDL+NZB mirror
Current Time: 21/06/2024 06:44



About/FAQs

Discord