Kino no Tabi 2003/[Breeze] Kino no Tabi (2003) 08 [576p DVD][AV1].mkv


File Size244.7 MB (256,551,207 bytes)
DownloadAnonFiles | ClickNUpload | DownloadGG | KrakenFiles | MultiUp
  • BdUpload
  • DownAce
  • Fichier
  • FileCloud
  • Filerio
  • FilesCdn
  • IndiShare
  • Kbagi
  • Turbobit
  • UpToBox
  • Uppit
| ZippyShare
HashesCRC32: 4DFD61B0, MD5: D98861EB2F43F289A1F06B219878E494, SHA1: 919E9B4D3F38D6B78ADB4269E99C9DB85FCC88B6, SHA256: 323A9E374B659FAFC5A3A9EABF8318478AB8B3925BBD5316F9CEE78328ED97CA, ED2K: 1537C0E09D4533CDF948351716114EE3
Screenshots
screenshotscreenshotscreenshotscreenshotscreenshot
SubtitlesAll Attachments | Subs by KAA [eng, ASS]
Additional Info
General
Unique ID                                : 27231191913101877996043321602044655869 (0x147C896B3EBCAA3DE2A9AC0B1528F8FD)
Complete name                            : [Breeze] Kino no Tabi (2003) 08 [576p DVD][AV1].mkv
Format                                   : Matroska
Format version                           : Version 4
File size                                : 245 MiB
Duration                                 : 24 min 23 s
Overall bit rate                         : 1 402 kb/s
Encoded date                             : UTC 2022-12-30 18:17:22
Writing application                      : mkvmerge v67.0.0 ('Under Stars') 64-bit
Writing library                          : libebml v1.4.2 + libmatroska v1.6.4
Attachments                              : corbel.ttf / corbelb.ttf / CUSHNGH.ttf / RuzickaTypeK.ttf / segoeprb.ttf

Video
ID                                       : 1
Format                                   : AV1
Format/Info                              : AOMedia Video 1
Format profile                           : Main@L3.0
Codec ID                                 : V_AV1
Duration                                 : 24 min 23 s
Bit rate                                 : 1 239 kb/s
Width                                    : 1 024 pixels
Height                                   : 576 pixels
Display aspect ratio                     : 16:9
Frame rate mode                          : Variable
Frame rate                               : 23.976 (24000/1001) FPS
Color space                              : YUV
Chroma subsampling                       : 4:2:0
Bit depth                                : 10 bits
Bits/(Pixel*Frame)                       : 0.088
Stream size                              : 216 MiB (88%)
Default                                  : No
Forced                                   : No
Color range                              : Limited

Audio
ID                                       : 2
Format                                   : Opus
Codec ID                                 : A_OPUS
Duration                                 : 24 min 22 s
Bit rate                                 : 154 kb/s
Channel(s)                               : 2 channels
Channel layout                           : L R
Sampling rate                            : 48.0 kHz
Frame rate                               : 50.000 FPS (960 SPF)
Compression mode                         : Lossy
Stream size                              : 26.8 MiB (11%)
Writing library                          : Lavc59.25.100 libopus
Language                                 : Japanese
Default                                  : Yes
Forced                                   : No

Text
ID                                       : 3
Format                                   : ASS
Codec ID                                 : S_TEXT/ASS
Codec ID/Info                            : Advanced Sub Station Alpha
Duration                                 : 24 min 11 s
Bit rate                                 : 138 b/s
Count of elements                        : 425
Compression mode                         : Lossless
Stream size                              : 24.5 KiB (0%)
Title                                    : Subs by KAA
Language                                 : English
Default                                  : No
Forced                                   : No

Other Files in this Torrent
Kino no Tabi 2003/[Breeze] Kino no Tabi (2003) 08 [576p DVD][AV1].mkv
beta
Anime DDL+NZB mirror
Current Time: 21/06/2024 07:15



About/FAQs

Discord