File Size616.1 MB (646,006,035 bytes)
DownloadClickNUpload | DailyUploads | DownloadGG | GoFile | KrakenFiles | MdiaLoad | Uppit
MultiUp: Part1
  • BdUpload
  • DownAce
  • Fichier
  • FileCloud
  • Filerio
  • FilesCdn
  • IndiShare
  • Kbagi
  • Turbobit
  • UpToBox
  • Uppit
, Part2
  • BdUpload
  • DownAce
  • Fichier
  • FileCloud
  • Filerio
  • FilesCdn
  • IndiShare
  • Kbagi
  • Turbobit
  • UpToBox
  • Uppit
HashesCRC32: 2393E6EE, MD5: 41B0D90A9735CA4D27BC860304265998, SHA1: 1DC8C8841061F9CF77CB32D7D51F22379212C365, SHA256: 25C5EAB8394D6DCE3DEF84BEFC74B6AFCFEED3A4E2EED512C6E8A3A27201D469, ED2K: 946F54D40A955DA53DFB2B4D0DD3B03E
Screenshots
screenshotscreenshotscreenshotscreenshotscreenshot
SubtitlesAll Attachments | Signs & Songs [PGS] [eng, PGS], Dialogue [PGS] [eng, PGS]
Additional Info
General
Unique ID                                : 24774806309918024056153303029084752771 (0x12A374421DF89B38F043C5094A768B83)
Complete name                            : [ScarletNeko] Hand Maid May S1 [540p][AV1][FLAC][2393E6EE].mkv
Format                                   : Matroska
Format version                           : Version 4
File size                                : 616 MiB
Duration                                 : 27 min 49 s
Overall bit rate mode                    : Variable
Overall bit rate                         : 3 095 kb/s
Frame rate                               : 23.976 FPS
Movie name                               : Hand Maid May Special 01 - Never Give Up
Encoded date                             : 2024-03-16 01:06:20 UTC
Writing application                      : mkvmerge v83.0 ('Circle Of Friends') 64-bit
Writing library                          : libebml v1.4.5 + libmatroska v1.7.1

Video
ID                                       : 1
Format                                   : AV1
Format/Info                              : AOMedia Video 1
Format profile                           : High@L3.0
Codec ID                                 : V_AV1
Duration                                 : 27 min 49 s
Bit rate                                 : 1 733 kb/s
Width                                    : 690 pixels
Height                                   : 540 pixels
Display aspect ratio                     : 4:3
Frame rate mode                          : Constant
Frame rate                               : 23.976 (24000/1001) FPS
Color space                              : YUV
Chroma subsampling                       : 4:4:4
Bit depth                                : 10 bits
Bits/(Pixel*Frame)                       : 0.194
Stream size                              : 345 MiB (56%)
Title                                    : BD Source | DS540p AV1 10bit
Language                                 : Japanese
Default                                  : Yes
Forced                                   : No
Color range                              : Limited
Color primaries                          : BT.709
Transfer characteristics                 : BT.709
Matrix coefficients                      : BT.709

Audio #1
ID                                       : 2
Format                                   : FLAC
Format/Info                              : Free Lossless Audio Codec
Codec ID                                 : A_FLAC
Duration                                 : 27 min 49 s
Bit rate mode                            : Variable
Bit rate                                 : 709 kb/s
Channel(s)                               : 2 channels
Channel layout                           : L R
Sampling rate                            : 48.0 kHz
Frame rate                               : 11.719 FPS (4096 SPF)
Bit depth                                : 16 bits
Compression mode                         : Lossless
Stream size                              : 141 MiB (23%)
Title                                    : JPN Main | FLAC Stereo
Writing library                          : libFLAC 20240306 (2024-03-06)
Language                                 : Japanese
Default                                  : Yes
Forced                                   : No
MD5 of the unencoded content             : 879C09586DA1F3DDD0D70265E2AE1383

Audio #2
ID                                       : 3
Format                                   : FLAC
Format/Info                              : Free Lossless Audio Codec
Codec ID                                 : A_FLAC
Duration                                 : 27 min 49 s
Bit rate mode                            : Variable
Bit rate                                 : 624 kb/s
Channel(s)                               : 2 channels
Channel layout                           : L R
Sampling rate                            : 48.0 kHz
Frame rate                               : 11.719 FPS (4096 SPF)
Bit depth                                : 16 bits
Compression mode                         : Lossless
Stream size                              : 124 MiB (20%)
Title                                    : ENG Main | FLAC Stereo
Writing library                          : libFLAC 20240306 (2024-03-06)
Language                                 : English
Default                                  : No
Forced                                   : No
MD5 of the unencoded content             : 3CED393DA58B83D32BEF6378F5C3B146

Text #1
ID                                       : 4
Format                                   : PGS
Muxing mode                              : zlib
Codec ID                                 : S_HDMV/PGS
Codec ID/Info                            : Picture based subtitle format used on BDs/HD-DVDs
Duration                                 : 26 min 2 s
Bit rate                                 : 6 558 b/s
Frame rate                               : 0.043 FPS
Count of elements                        : 67
Stream size                              : 1.22 MiB (0%)
Title                                    : Signs & Songs [PGS]
Language                                 : English
Default                                  : No
Forced                                   : Yes

Text #2
ID                                       : 5
Format                                   : PGS
Muxing mode                              : zlib
Codec ID                                 : S_HDMV/PGS
Codec ID/Info                            : Picture based subtitle format used on BDs/HD-DVDs
Duration                                 : 27 min 41 s
Bit rate                                 : 51.9 kb/s
Frame rate                               : 0.564 FPS
Count of elements                        : 938
Stream size                              : 10.3 MiB (2%)
Title                                    : Dialogue [PGS]
Language                                 : English
Default                                  : Yes
Forced                                   : No

Menu
00:00:00.000                             : en:Prologue
00:02:42.996                             : en:Opening
00:04:12.252                             : en:Part A
00:13:43.406                             : en:Part B
00:26:37.596                             : en:Ending

Other Files in this Torrent
[ScarletNeko] Hand Maid May S1 [540p][AV1][FLAC][2393E6EE].mkv
beta
Anime DDL+NZB mirror
Current Time: 18/05/2024 09:45



About/FAQs

Discord