Extras/[ScarletNeko] Hand Maid May Nanbara's Room [AV1][FLAC][AC3][PGS][D622618C].mkv


File Size44.32 MB (46,477,152 bytes)
DownloadClickNUpload | DailyUploads | DownloadGG | GoFile | KrakenFiles | MdiaLoad | MultiUp
  • BdUpload
  • DownAce
  • Fichier
  • FileCloud
  • Filerio
  • FilesCdn
  • IndiShare
  • Kbagi
  • Turbobit
  • UpToBox
  • Uppit
| Uppit
HashesCRC32: D622618C, MD5: 72FCD478D2233D829097191468D6A630, SHA1: 27B0B579C4B5E854FDD73FF5EAB43C1E7FCB12C2, SHA256: E6E79361284A3ADBDDCB99C438B0A50B8E8B983C0A6194C2829BE4C4ED96F0F8, ED2K: 2D0BB4CD5FA4C5ECC24B765C1CDBAF51
Screenshots
screenshotscreenshotscreenshotscreenshot
SubtitlesAll Attachments | Signs [PGS] [eng, PGS], Dialogue [PGS] [eng, PGS]
Additional Info
General
Unique ID                                : 302122373126844866477687959402882151352 (0xE34AA70C09ADEC7F67A2CEE4CF4233B8)
Complete name                            : [ScarletNeko] Hand Maid May Nanbara's Room [AV1][FLAC][AC3][PGS][D622618C].mkv
Format                                   : Matroska
Format version                           : Version 4
File size                                : 44.3 MiB
Duration                                 : 3 min 30 s
Overall bit rate mode                    : Variable
Overall bit rate                         : 1 764 kb/s
Frame rate                               : 23.976 FPS
Movie name                               : Hand Maid May Nanbara's Room
Encoded date                             : 2024-04-02 15:15:32 UTC
Writing application                      : mkvmerge v83.0 ('Circle Of Friends') 64-bit
Writing library                          : libebml v1.4.5 + libmatroska v1.7.1

Video
ID                                       : 1
Format                                   : AV1
Format/Info                              : AOMedia Video 1
Format profile                           : Main@L3.0
Codec ID                                 : V_AV1
Duration                                 : 3 min 30 s
Bit rate                                 : 1 025 kb/s
Width                                    : 720 pixels
Height                                   : 480 pixels
Display aspect ratio                     : 4:3
Frame rate mode                          : Constant
Frame rate                               : 23.976 (24000/1001) FPS
Color space                              : YUV
Chroma subsampling                       : 4:2:0
Bit depth                                : 10 bits
Bits/(Pixel*Frame)                       : 0.124
Stream size                              : 25.7 MiB (58%)
Title                                    : BD Source | 480p AV1 10bit
Language                                 : Japanese
Default                                  : Yes
Forced                                   : No
Color range                              : Limited
Color primaries                          : BT.601 NTSC
Transfer characteristics                 : BT.601
Matrix coefficients                      : BT.601

Audio #1
ID                                       : 2
Format                                   : AC-3
Format/Info                              : Audio Coding 3
Commercial name                          : Dolby Digital
Codec ID                                 : A_AC3
Duration                                 : 3 min 30 s
Bit rate mode                            : Constant
Bit rate                                 : 256 kb/s
Channel(s)                               : 2 channels
Channel layout                           : L R
Sampling rate                            : 48.0 kHz
Frame rate                               : 31.250 FPS (1536 SPF)
Compression mode                         : Lossy
Stream size                              : 6.43 MiB (15%)
Title                                    : JPN Main | AC3 256k Stereo
Language                                 : Japanese
Service kind                             : Complete Main
Default                                  : Yes
Forced                                   : No

Audio #2
ID                                       : 3
Format                                   : FLAC
Format/Info                              : Free Lossless Audio Codec
Codec ID                                 : A_FLAC
Duration                                 : 3 min 30 s
Bit rate mode                            : Variable
Bit rate                                 : 463 kb/s
Channel(s)                               : 2 channels
Channel layout                           : L R
Sampling rate                            : 48.0 kHz
Frame rate                               : 11.720 FPS (4096 SPF)
Bit depth                                : 16 bits
Compression mode                         : Lossless
Stream size                              : 11.6 MiB (26%)
Title                                    : ENG Main | FLAC Stereo
Writing library                          : libFLAC 1.4.3 (2023-06-23)
Language                                 : Japanese
Default                                  : No
Forced                                   : No
MD5 of the unencoded content             : EF5442E2F1592CB7FBEB4F4BC0D41750

Text #1
ID                                       : 4
Format                                   : PGS
Muxing mode                              : zlib
Codec ID                                 : S_HDMV/PGS
Codec ID/Info                            : Picture based subtitle format used on BDs/HD-DVDs
Duration                                 : 1 min 53 s
Bit rate                                 : 15.5 kb/s
Frame rate                               : 0.159 FPS
Count of elements                        : 18
Stream size                              : 215 KiB (0%)
Title                                    : Signs [PGS]
Language                                 : English
Default                                  : No
Forced                                   : Yes

Text #2
ID                                       : 5
Format                                   : PGS
Muxing mode                              : zlib
Codec ID                                 : S_HDMV/PGS
Codec ID/Info                            : Picture based subtitle format used on BDs/HD-DVDs
Duration                                 : 3 min 25 s
Bit rate                                 : 32.4 kb/s
Frame rate                               : 0.307 FPS
Count of elements                        : 63
Stream size                              : 811 KiB (2%)
Title                                    : Dialogue [PGS]
Language                                 : English
Default                                  : Yes
Forced                                   : No

Menu
00:00:00.000                             : en:
00:01:36.129                             : en:
00:01:42.836                             : en:
00:01:48.342                             : en:
00:01:54.848                             : en:
00:02:00.854                             : en:
00:02:06.893                             : en:
00:02:12.933                             : en:
00:02:18.271                             : en:
00:02:24.778                             : en:
00:02:29.983                             : en:
00:02:36.990                             : en:
00:02:44.765                             : en:
00:03:21.668                             : en:

Other Files in this Torrent
Extras/[ScarletNeko] Hand Maid May Nanbara's Room [AV1][FLAC][AC3][PGS][D622618C].mkv
beta
Anime DDL+NZB mirror
Current Time: 20/05/2024 22:01



About/FAQs

Discord