File Size658.0 MB (689,986,573 bytes)
DownloadClickNUpload | DailyUploads | DownloadGG | GoFile | KrakenFiles | MdiaLoad | Uppit
MultiUp: Part1
  • BdUpload
  • DownAce
  • Fichier
  • FileCloud
  • Filerio
  • FilesCdn
  • IndiShare
  • Kbagi
  • Turbobit
  • UpToBox
  • Uppit
, Part2
  • BdUpload
  • DownAce
  • Fichier
  • FileCloud
  • Filerio
  • FilesCdn
  • IndiShare
  • Kbagi
  • Turbobit
  • UpToBox
  • Uppit
HashesCRC32: E6338413, MD5: 29ACD3E6645AC8948DFAE5A7AF87B1F2, SHA1: 724B7CF97D6FC600CA096E622394125E533A5C4A, SHA256: F8958E5F40A15C94F60A3FC5B73B0E8E40204D0BC163CAB09BDAA99C80A16504, ED2K: 043A6265876A8976D34B8E7A76BD708B
Screenshots
screenshotscreenshotscreenshotscreenshotscreenshot
SubtitlesAll Attachments | Signs & Songs [PGS] [eng, PGS], Dialogue [PGS] [eng, PGS]
Additional Info
General
Unique ID                                : 338082103501755926358286970979517497320 (0xFE583EA3519691E20281D524D6947FE8)
Complete name                            : [ScarletNeko] Hand Maid May 10 [540p][AV1][FLAC][E6338413].mkv
Format                                   : Matroska
Format version                           : Version 4
File size                                : 658 MiB
Duration                                 : 24 min 39 s
Overall bit rate mode                    : Variable
Overall bit rate                         : 3 732 kb/s
Frame rate                               : 23.976 FPS
Movie name                               : Hand Maid May 10 - My Best
Encoded date                             : 2024-03-16 01:09:36 UTC
Writing application                      : mkvmerge v83.0 ('Circle Of Friends') 64-bit
Writing library                          : libebml v1.4.5 + libmatroska v1.7.1

Video
ID                                       : 1
Format                                   : AV1
Format/Info                              : AOMedia Video 1
Format profile                           : High@L3.0
Codec ID                                 : V_AV1
Duration                                 : 24 min 39 s
Bit rate                                 : 2 324 kb/s
Width                                    : 690 pixels
Height                                   : 540 pixels
Display aspect ratio                     : 4:3
Frame rate mode                          : Constant
Frame rate                               : 23.976 (24000/1001) FPS
Color space                              : YUV
Chroma subsampling                       : 4:4:4
Bit depth                                : 10 bits
Bits/(Pixel*Frame)                       : 0.260
Stream size                              : 410 MiB (62%)
Title                                    : BD Source | DS540p AV1 10bit
Language                                 : Japanese
Default                                  : Yes
Forced                                   : No
Color range                              : Limited
Color primaries                          : BT.709
Transfer characteristics                 : BT.709
Matrix coefficients                      : BT.709

Audio #1
ID                                       : 2
Format                                   : FLAC
Format/Info                              : Free Lossless Audio Codec
Codec ID                                 : A_FLAC
Duration                                 : 24 min 39 s
Bit rate mode                            : Variable
Bit rate                                 : 741 kb/s
Channel(s)                               : 2 channels
Channel layout                           : L R
Sampling rate                            : 48.0 kHz
Frame rate                               : 11.719 FPS (4096 SPF)
Bit depth                                : 16 bits
Compression mode                         : Lossless
Stream size                              : 131 MiB (20%)
Title                                    : JPN Main | FLAC Stereo
Writing library                          : libFLAC 20240306 (2024-03-06)
Language                                 : Japanese
Default                                  : Yes
Forced                                   : No
MD5 of the unencoded content             : 7ED94EDBB379F3CB1299E92F864B2948

Audio #2
ID                                       : 3
Format                                   : FLAC
Format/Info                              : Free Lossless Audio Codec
Codec ID                                 : A_FLAC
Duration                                 : 24 min 39 s
Bit rate mode                            : Variable
Bit rate                                 : 644 kb/s
Channel(s)                               : 2 channels
Channel layout                           : L R
Sampling rate                            : 48.0 kHz
Frame rate                               : 11.719 FPS (4096 SPF)
Bit depth                                : 16 bits
Compression mode                         : Lossless
Stream size                              : 114 MiB (17%)
Title                                    : ENG Main | FLAC Stereo
Writing library                          : libFLAC 20240306 (2024-03-06)
Language                                 : English
Default                                  : No
Forced                                   : No
MD5 of the unencoded content             : 60EAC0217AB8D9E90FFAE15ED63E8CB9

Text #1
ID                                       : 4
Format                                   : PGS
Muxing mode                              : zlib
Codec ID                                 : S_HDMV/PGS
Codec ID/Info                            : Picture based subtitle format used on BDs/HD-DVDs
Duration                                 : 21 min 11 s
Bit rate                                 : 5 434 b/s
Frame rate                               : 0.039 FPS
Count of elements                        : 49
Stream size                              : 844 KiB (0%)
Title                                    : Signs & Songs [PGS]
Language                                 : English
Default                                  : No
Forced                                   : Yes

Text #2
ID                                       : 5
Format                                   : PGS
Muxing mode                              : zlib
Codec ID                                 : S_HDMV/PGS
Codec ID/Info                            : Picture based subtitle format used on BDs/HD-DVDs
Duration                                 : 23 min 34 s
Bit rate                                 : 39.6 kb/s
Frame rate                               : 0.438 FPS
Count of elements                        : 619
Stream size                              : 6.67 MiB (1%)
Title                                    : Dialogue [PGS]
Language                                 : English
Default                                  : Yes
Forced                                   : No

Menu
00:00:00.000                             : en:Prologue
00:03:30.043                             : en:Part A
00:13:06.744                             : en:Part B
00:21:18.277                             : en:Epilogue
00:24:24.254                             : en:Preview

Other Files in this Torrent
[ScarletNeko] Hand Maid May 10 [540p][AV1][FLAC][E6338413].mkv
beta
Anime DDL+NZB mirror
Current Time: 20/05/2024 22:48



About/FAQs

Discord