File Size546.9 MB (573,438,285 bytes)
DownloadClickNUpload | DailyUploads | DownloadGG | GoFile | KrakenFiles | MdiaLoad | Uppit
MultiUp: Part1
  • BdUpload
  • DownAce
  • Fichier
  • FileCloud
  • Filerio
  • FilesCdn
  • IndiShare
  • Kbagi
  • Turbobit
  • UpToBox
  • Uppit
, Part2
  • BdUpload
  • DownAce
  • Fichier
  • FileCloud
  • Filerio
  • FilesCdn
  • IndiShare
  • Kbagi
  • Turbobit
  • UpToBox
  • Uppit
HashesCRC32: 3078B67F, MD5: 4FCBBAE2DC62E700AEBAB876398BBE87, SHA1: C633A94C83388F1012356B218AEDC3FD4B00027B, SHA256: 8B356A7FFA09C0341422422346A1C4CC57EF518CDC69C552C605A1C77AE8EB69, ED2K: 4FBDE868D1D30483CAD1BFB3263337BF
Screenshots
screenshotscreenshotscreenshotscreenshotscreenshot
SubtitlesAll Attachments | Signs & Songs [PGS] [eng, PGS], Dialogue [PGS] [eng, PGS]
Additional Info
General
Unique ID                                : 152326559387334098546541401516468907741 (0x72990738709E2AEAAC72BF925084AEDD)
Complete name                            : [ScarletNeko] Hand Maid May 05 [540p][AV1][FLAC][3078B67F].mkv
Format                                   : Matroska
Format version                           : Version 4
File size                                : 547 MiB
Duration                                 : 22 min 59 s
Overall bit rate mode                    : Variable
Overall bit rate                         : 3 326 kb/s
Frame rate                               : 23.976 FPS
Movie name                               : Hand Maid May 05 - Until Today, I've Really...
Encoded date                             : 2024-03-16 01:01:10 UTC
Writing application                      : mkvmerge v83.0 ('Circle Of Friends') 64-bit
Writing library                          : libebml v1.4.5 + libmatroska v1.7.1

Video
ID                                       : 1
Format                                   : AV1
Format/Info                              : AOMedia Video 1
Format profile                           : High@L3.0
Codec ID                                 : V_AV1
Duration                                 : 22 min 59 s
Bit rate                                 : 2 034 kb/s
Width                                    : 690 pixels
Height                                   : 540 pixels
Display aspect ratio                     : 4:3
Frame rate mode                          : Constant
Frame rate                               : 23.976 (24000/1001) FPS
Color space                              : YUV
Chroma subsampling                       : 4:4:4
Bit depth                                : 10 bits
Bits/(Pixel*Frame)                       : 0.228
Stream size                              : 334 MiB (61%)
Title                                    : BD Source | DS540p AV1 10bit
Language                                 : Japanese
Default                                  : Yes
Forced                                   : No
Color range                              : Limited
Color primaries                          : BT.709
Transfer characteristics                 : BT.709
Matrix coefficients                      : BT.709

Audio #1
ID                                       : 2
Format                                   : FLAC
Format/Info                              : Free Lossless Audio Codec
Codec ID                                 : A_FLAC
Duration                                 : 22 min 59 s
Bit rate mode                            : Variable
Bit rate                                 : 673 kb/s
Channel(s)                               : 2 channels
Channel layout                           : L R
Sampling rate                            : 48.0 kHz
Frame rate                               : 11.719 FPS (4096 SPF)
Bit depth                                : 16 bits
Compression mode                         : Lossless
Stream size                              : 111 MiB (20%)
Title                                    : JPN Main | FLAC Stereo
Writing library                          : libFLAC 20240306 (2024-03-06)
Language                                 : Japanese
Default                                  : Yes
Forced                                   : No
MD5 of the unencoded content             : 75451CA0E201F1B97B1D56A4891C801A

Audio #2
ID                                       : 3
Format                                   : FLAC
Format/Info                              : Free Lossless Audio Codec
Codec ID                                 : A_FLAC
Duration                                 : 22 min 59 s
Bit rate mode                            : Variable
Bit rate                                 : 595 kb/s
Channel(s)                               : 2 channels
Channel layout                           : L R
Sampling rate                            : 48.0 kHz
Frame rate                               : 11.719 FPS (4096 SPF)
Bit depth                                : 16 bits
Compression mode                         : Lossless
Stream size                              : 97.9 MiB (18%)
Title                                    : ENG Main | FLAC Stereo
Writing library                          : libFLAC 20240306 (2024-03-06)
Language                                 : English
Default                                  : No
Forced                                   : No
MD5 of the unencoded content             : CDA57FFC4FED83549339BF8F1B0ECA31

Text #1
ID                                       : 4
Format                                   : PGS
Muxing mode                              : zlib
Codec ID                                 : S_HDMV/PGS
Codec ID/Info                            : Picture based subtitle format used on BDs/HD-DVDs
Duration                                 : 22 min 55 s
Bit rate                                 : 7 473 b/s
Frame rate                               : 0.051 FPS
Count of elements                        : 70
Stream size                              : 1.23 MiB (0%)
Title                                    : Signs & Songs [PGS]
Language                                 : English
Default                                  : No
Forced                                   : Yes

Text #2
ID                                       : 5
Format                                   : PGS
Muxing mode                              : zlib
Codec ID                                 : S_HDMV/PGS
Codec ID/Info                            : Picture based subtitle format used on BDs/HD-DVDs
Duration                                 : 22 min 55 s
Bit rate                                 : 36.5 kb/s
Frame rate                               : 0.387 FPS
Count of elements                        : 533
Stream size                              : 5.99 MiB (1%)
Title                                    : Dialogue [PGS]
Language                                 : English
Default                                  : Yes
Forced                                   : No

Menu
00:00:00.000                             : en:Opening
00:01:29.089                             : en:Part A
00:11:50.835                             : en:Part B
00:21:31.290                             : en:Ending
00:22:44.363                             : en:Preview

Other Files in this Torrent
[ScarletNeko] Hand Maid May 05 [540p][AV1][FLAC][3078B67F].mkv
beta
Anime DDL+NZB mirror
Current Time: 20/05/2024 21:23



About/FAQs

Discord