File Size572.3 MB (600,099,737 bytes)
DownloadClickNUpload | DailyUploads | DownloadGG | GoFile | KrakenFiles | MdiaLoad | Uppit
MultiUp: Part1
  • BdUpload
  • DownAce
  • Fichier
  • FileCloud
  • Filerio
  • FilesCdn
  • IndiShare
  • Kbagi
  • Turbobit
  • UpToBox
  • Uppit
, Part2
  • BdUpload
  • DownAce
  • Fichier
  • FileCloud
  • Filerio
  • FilesCdn
  • IndiShare
  • Kbagi
  • Turbobit
  • UpToBox
  • Uppit
HashesCRC32: 6CC4E084, MD5: 5D81DCD45654C6778CDF7BB6D75A1D81, SHA1: 5EC8D959B0C734C831B6FFC8335CF929F0B22E46, SHA256: 96374CCFDE5F2601F64B7D49F182DDEABA4FEF104B14AF0E51C010EDD97C8D53, ED2K: F3BFA122234EC651601205E6DD390971
Screenshots
screenshotscreenshotscreenshotscreenshotscreenshot
SubtitlesAll Attachments | Signs & Songs [PGS] [eng, PGS], Dialogue [PGS] [eng, PGS]
Additional Info
General
Unique ID                                : 277270020086858664984329053971164524039 (0xD098437094F609C62073A4A948916E07)
Complete name                            : [ScarletNeko] Hand Maid May 08 [540p][AV1][FLAC][6CC4E084].mkv
Format                                   : Matroska
Format version                           : Version 4
File size                                : 572 MiB
Duration                                 : 23 min 13 s
Overall bit rate mode                    : Variable
Overall bit rate                         : 3 446 kb/s
Frame rate                               : 23.976 FPS
Movie name                               : Hand Maid May 08 - There's So Much I Want!
Encoded date                             : 2024-03-16 01:03:17 UTC
Writing application                      : mkvmerge v83.0 ('Circle Of Friends') 64-bit
Writing library                          : libebml v1.4.5 + libmatroska v1.7.1

Video
ID                                       : 1
Format                                   : AV1
Format/Info                              : AOMedia Video 1
Format profile                           : High@L3.0
Codec ID                                 : V_AV1
Duration                                 : 23 min 13 s
Bit rate                                 : 2 028 kb/s
Width                                    : 690 pixels
Height                                   : 540 pixels
Display aspect ratio                     : 4:3
Frame rate mode                          : Constant
Frame rate                               : 23.976 (24000/1001) FPS
Color space                              : YUV
Chroma subsampling                       : 4:4:4
Bit depth                                : 10 bits
Bits/(Pixel*Frame)                       : 0.227
Stream size                              : 337 MiB (59%)
Title                                    : BD Source | DS540p AV1 10bit
Language                                 : Japanese
Default                                  : Yes
Forced                                   : No
Color range                              : Limited
Color primaries                          : BT.709
Transfer characteristics                 : BT.709
Matrix coefficients                      : BT.709

Audio #1
ID                                       : 2
Format                                   : FLAC
Format/Info                              : Free Lossless Audio Codec
Codec ID                                 : A_FLAC
Duration                                 : 23 min 13 s
Bit rate mode                            : Variable
Bit rate                                 : 741 kb/s
Channel(s)                               : 2 channels
Channel layout                           : L R
Sampling rate                            : 48.0 kHz
Frame rate                               : 11.719 FPS (4096 SPF)
Bit depth                                : 16 bits
Compression mode                         : Lossless
Stream size                              : 123 MiB (21%)
Title                                    : JPN Main | FLAC Stereo
Writing library                          : libFLAC 20240306 (2024-03-06)
Language                                 : Japanese
Default                                  : Yes
Forced                                   : No
MD5 of the unencoded content             : FB36125A805FB121293881F36C33CA84

Audio #2
ID                                       : 3
Format                                   : FLAC
Format/Info                              : Free Lossless Audio Codec
Codec ID                                 : A_FLAC
Duration                                 : 23 min 13 s
Bit rate mode                            : Variable
Bit rate                                 : 653 kb/s
Channel(s)                               : 2 channels
Channel layout                           : L R
Sampling rate                            : 48.0 kHz
Frame rate                               : 11.719 FPS (4096 SPF)
Bit depth                                : 16 bits
Compression mode                         : Lossless
Stream size                              : 108 MiB (19%)
Title                                    : ENG Main | FLAC Stereo
Writing library                          : libFLAC 20240306 (2024-03-06)
Language                                 : English
Default                                  : No
Forced                                   : No
MD5 of the unencoded content             : 69C1A321B028EC297430DDBDF22D6341

Text #1
ID                                       : 4
Format                                   : PGS
Muxing mode                              : zlib
Codec ID                                 : S_HDMV/PGS
Codec ID/Info                            : Picture based subtitle format used on BDs/HD-DVDs
Duration                                 : 23 min 9 s
Bit rate                                 : 7 256 b/s
Frame rate                               : 0.045 FPS
Count of elements                        : 62
Stream size                              : 1.20 MiB (0%)
Title                                    : Signs & Songs [PGS]
Language                                 : English
Default                                  : No
Forced                                   : Yes

Text #2
ID                                       : 5
Format                                   : PGS
Muxing mode                              : zlib
Codec ID                                 : S_HDMV/PGS
Codec ID/Info                            : Picture based subtitle format used on BDs/HD-DVDs
Duration                                 : 23 min 9 s
Bit rate                                 : 39.7 kb/s
Frame rate                               : 0.449 FPS
Count of elements                        : 624
Stream size                              : 6.58 MiB (1%)
Title                                    : Dialogue [PGS]
Language                                 : English
Default                                  : Yes
Forced                                   : No

Menu
00:00:00.000                             : en:Opening
00:01:29.089                             : en:Part A
00:16:19.229                             : en:Part B
00:21:45.304                             : en:Ending
00:22:58.377                             : en:Preview

Other Files in this Torrent
[ScarletNeko] Hand Maid May 08 [540p][AV1][FLAC][6CC4E084].mkv
beta
Anime DDL+NZB mirror
Current Time: 13/06/2024 05:21



About/FAQs

Discord