Extras/[ScarletNeko] Hand Maid May Kasumi Files [AV1][FLAC][AC3][PGS][A434C736].mkv


File Size13.60 MB (14,263,412 bytes)
DownloadClickNUpload | DailyUploads | DownloadGG | GoFile | KrakenFiles | MdiaLoad | MultiUp
  • BdUpload
  • DownAce
  • Fichier
  • FileCloud
  • Filerio
  • FilesCdn
  • IndiShare
  • Kbagi
  • Turbobit
  • UpToBox
  • Uppit
| Uppit
HashesCRC32: A434C736, MD5: 6F7719679CC6A58E8E0D41A91A2CECC0, SHA1: A678840F28F443BDFDA6A90825BC462D36714678, SHA256: 186EEE0CE996DD356D725F9414232AEC853A071BF111D77C82F80200FD7CDB6A, ED2K: 1F64917DAA9E822BA46D50299E34B6AF
Screenshots
screenshot
SubtitlesAll Attachments | Signs [PGS] [eng, PGS], Dialogue [PGS] [eng, PGS]
Additional Info
General
Unique ID                                : 318087341584183594449218169533090949855 (0xEF4D64C38B09235A77FC365C8D56EADF)
Complete name                            : [ScarletNeko] Hand Maid May Kasumi Files [AV1][FLAC][AC3][PGS][A434C736].mkv
Format                                   : Matroska
Format version                           : Version 4
File size                                : 13.6 MiB
Duration                                 : 1 min 6 s
Overall bit rate mode                    : Variable
Overall bit rate                         : 1 710 kb/s
Frame rate                               : 23.976 FPS
Movie name                               : Hand Maid May Kasumi Files
Encoded date                             : 2024-04-02 15:14:02 UTC
Writing application                      : mkvmerge v83.0 ('Circle Of Friends') 64-bit
Writing library                          : libebml v1.4.5 + libmatroska v1.7.1

Video
ID                                       : 1
Format                                   : AV1
Format/Info                              : AOMedia Video 1
Format profile                           : Main@L3.0
Codec ID                                 : V_AV1
Duration                                 : 1 min 6 s
Bit rate                                 : 918 kb/s
Width                                    : 720 pixels
Height                                   : 480 pixels
Display aspect ratio                     : 4:3
Frame rate mode                          : Constant
Frame rate                               : 23.976 FPS
Color space                              : YUV
Chroma subsampling                       : 4:2:0
Bit depth                                : 10 bits
Bits/(Pixel*Frame)                       : 0.111
Stream size                              : 7.30 MiB (54%)
Title                                    : BD Source | 480p AV1 10bit
Language                                 : Japanese
Default                                  : Yes
Forced                                   : No
Color range                              : Limited
Color primaries                          : BT.601 NTSC
Transfer characteristics                 : BT.601
Matrix coefficients                      : BT.601

Audio #1
ID                                       : 2
Format                                   : AC-3
Format/Info                              : Audio Coding 3
Commercial name                          : Dolby Digital
Codec ID                                 : A_AC3
Duration                                 : 1 min 6 s
Bit rate mode                            : Constant
Bit rate                                 : 256 kb/s
Channel(s)                               : 2 channels
Channel layout                           : L R
Sampling rate                            : 48.0 kHz
Frame rate                               : 31.250 FPS (1536 SPF)
Compression mode                         : Lossy
Stream size                              : 2.04 MiB (15%)
Title                                    : JPN Main | AC3 256k Stereo
Language                                 : Japanese
Service kind                             : Complete Main
Default                                  : Yes
Forced                                   : No

Audio #2
ID                                       : 3
Format                                   : FLAC
Format/Info                              : Free Lossless Audio Codec
Codec ID                                 : A_FLAC
Duration                                 : 1 min 6 s
Bit rate mode                            : Variable
Bit rate                                 : 519 kb/s
Channel(s)                               : 2 channels
Channel layout                           : L R
Sampling rate                            : 48.0 kHz
Frame rate                               : 11.733 FPS (4091 SPF)
Bit depth                                : 16 bits
Compression mode                         : Lossless
Stream size                              : 4.13 MiB (30%)
Title                                    : ENG Main | FLAC Stereo
Writing library                          : libFLAC 1.4.3 (2023-06-23)
Language                                 : Japanese
Default                                  : No
Forced                                   : No
MD5 of the unencoded content             : 5C3DF9FB5E7C868D0C2D0E0CEEFEE55A

Text #1
ID                                       : 4
Format                                   : PGS
Muxing mode                              : zlib
Codec ID                                 : S_HDMV/PGS
Codec ID/Info                            : Picture based subtitle format used on BDs/HD-DVDs
Duration                                 : 33 ms
Bit rate                                 : 1 641 kb/s
Frame rate                               : 60.606 FPS
Count of elements                        : 2
Stream size                              : 6.61 KiB (0%)
Title                                    : Signs [PGS]
Language                                 : English
Default                                  : No
Forced                                   : Yes

Text #2
ID                                       : 5
Format                                   : PGS
Muxing mode                              : zlib
Codec ID                                 : S_HDMV/PGS
Codec ID/Info                            : Picture based subtitle format used on BDs/HD-DVDs
Duration                                 : 1 min 3 s
Bit rate                                 : 32.2 kb/s
Frame rate                               : 0.455 FPS
Count of elements                        : 29
Stream size                              : 251 KiB (2%)
Title                                    : Dialogue [PGS]
Language                                 : English
Default                                  : Yes
Forced                                   : No

Menu
00:00:00.000                             : en:
00:00:29.830                             : en:

Other Files in this Torrent
Extras/[ScarletNeko] Hand Maid May Kasumi Files [AV1][FLAC][AC3][PGS][A434C736].mkv
beta
Anime DDL+NZB mirror
Current Time: 18/05/2024 10:59



About/FAQs

Discord