File Size563.9 MB (591,322,399 bytes)
DownloadClickNUpload | DailyUploads | DownloadGG | GoFile | KrakenFiles | MdiaLoad | Uppit
MultiUp: Part1
  • BdUpload
  • DownAce
  • Fichier
  • FileCloud
  • Filerio
  • FilesCdn
  • IndiShare
  • Kbagi
  • Turbobit
  • UpToBox
  • Uppit
, Part2
  • BdUpload
  • DownAce
  • Fichier
  • FileCloud
  • Filerio
  • FilesCdn
  • IndiShare
  • Kbagi
  • Turbobit
  • UpToBox
  • Uppit
HashesCRC32: D8C4A209, MD5: 50008C2640892C4B4E5172C2FC7E399E, SHA1: A0FE752367A510F973C109693AB8EC1672DC4A00, SHA256: 1D4A20BE592A63BBC912FC3B5EABFD216B75EC4CBF3AFD62EB547587A6364236, ED2K: EF0BFA58CBC431787585B4DCB505CE9A
Screenshots
screenshotscreenshotscreenshotscreenshotscreenshot
SubtitlesAll Attachments | Signs & Songs [PGS] [eng, PGS], Dialogue [PGS] [eng, PGS]
Additional Info
General
Unique ID                                : 189311644270695470470959761718083025549 (0x8E6C18B11796C05AE45C5BEA65B37A8D)
Complete name                            : [ScarletNeko] Hand Maid May 02 [540p][AV1][FLAC][D8C4A209].mkv
Format                                   : Matroska
Format version                           : Version 4
File size                                : 564 MiB
Duration                                 : 22 min 57 s
Overall bit rate mode                    : Variable
Overall bit rate                         : 3 435 kb/s
Frame rate                               : 23.976 FPS
Movie name                               : Hand Maid May 02 - Am I Any Use At All?
Encoded date                             : 2024-03-16 00:58:57 UTC
Writing application                      : mkvmerge v83.0 ('Circle Of Friends') 64-bit
Writing library                          : libebml v1.4.5 + libmatroska v1.7.1

Video
ID                                       : 1
Format                                   : AV1
Format/Info                              : AOMedia Video 1
Format profile                           : High@L3.0
Codec ID                                 : V_AV1
Duration                                 : 22 min 57 s
Bit rate                                 : 2 009 kb/s
Width                                    : 690 pixels
Height                                   : 540 pixels
Display aspect ratio                     : 4:3
Frame rate mode                          : Constant
Frame rate                               : 23.976 (24000/1001) FPS
Color space                              : YUV
Chroma subsampling                       : 4:4:4
Bit depth                                : 10 bits
Bits/(Pixel*Frame)                       : 0.225
Stream size                              : 330 MiB (58%)
Title                                    : BD Source | DS540p AV1 10bit
Language                                 : Japanese
Default                                  : Yes
Forced                                   : No
Color range                              : Limited
Color primaries                          : BT.709
Transfer characteristics                 : BT.709
Matrix coefficients                      : BT.709

Audio #1
ID                                       : 2
Format                                   : FLAC
Format/Info                              : Free Lossless Audio Codec
Codec ID                                 : A_FLAC
Duration                                 : 22 min 57 s
Bit rate mode                            : Variable
Bit rate                                 : 728 kb/s
Channel(s)                               : 2 channels
Channel layout                           : L R
Sampling rate                            : 48.0 kHz
Frame rate                               : 11.719 FPS (4096 SPF)
Bit depth                                : 16 bits
Compression mode                         : Lossless
Stream size                              : 119 MiB (21%)
Title                                    : JPN Main | FLAC Stereo
Writing library                          : libFLAC 20240306 (2024-03-06)
Language                                 : Japanese
Default                                  : Yes
Forced                                   : No
MD5 of the unencoded content             : 9DB1736C500C5E5E246981AFFE446FE0

Audio #2
ID                                       : 3
Format                                   : FLAC
Format/Info                              : Free Lossless Audio Codec
Codec ID                                 : A_FLAC
Duration                                 : 22 min 57 s
Bit rate mode                            : Variable
Bit rate                                 : 670 kb/s
Channel(s)                               : 2 channels
Channel layout                           : L R
Sampling rate                            : 48.0 kHz
Frame rate                               : 11.719 FPS (4096 SPF)
Bit depth                                : 16 bits
Compression mode                         : Lossless
Stream size                              : 110 MiB (19%)
Title                                    : ENG Main | FLAC Stereo
Writing library                          : libFLAC 20240306 (2024-03-06)
Language                                 : English
Default                                  : No
Forced                                   : No
MD5 of the unencoded content             : 176E0364A0315798C624E10F90C1DA57

Text #1
ID                                       : 4
Format                                   : PGS
Muxing mode                              : zlib
Codec ID                                 : S_HDMV/PGS
Codec ID/Info                            : Picture based subtitle format used on BDs/HD-DVDs
Duration                                 : 22 min 53 s
Bit rate                                 : 8 531 b/s
Frame rate                               : 0.059 FPS
Count of elements                        : 81
Stream size                              : 1.40 MiB (0%)
Title                                    : Signs & Songs [PGS]
Language                                 : English
Default                                  : No
Forced                                   : Yes

Text #2
ID                                       : 5
Format                                   : PGS
Muxing mode                              : zlib
Codec ID                                 : S_HDMV/PGS
Codec ID/Info                            : Picture based subtitle format used on BDs/HD-DVDs
Duration                                 : 22 min 53 s
Bit rate                                 : 48.5 kb/s
Frame rate                               : 0.521 FPS
Count of elements                        : 716
Stream size                              : 7.93 MiB (1%)
Title                                    : Dialogue [PGS]
Language                                 : English
Default                                  : Yes
Forced                                   : No

Menu
00:00:00.000                             : en:Opening
00:01:29.006                             : en:Part A
00:11:01.119                             : en:Part B
00:21:30.289                             : en:Ending
00:22:43.070                             : en:Preview

Other Files in this Torrent
[ScarletNeko] Hand Maid May 02 [540p][AV1][FLAC][D8C4A209].mkv
beta
Anime DDL+NZB mirror
Current Time: 18/05/2024 10:40



About/FAQs

Discord