Extras/[ScarletNeko] Hand Maid May Ending Collection [AV1][AC3][C8C22821].mkv


File Size49.28 MB (51,677,575 bytes)
DownloadClickNUpload | DailyUploads | DownloadGG | GoFile | KrakenFiles | MdiaLoad | MultiUp
  • BdUpload
  • DownAce
  • Fichier
  • FileCloud
  • Filerio
  • FilesCdn
  • IndiShare
  • Kbagi
  • Turbobit
  • UpToBox
  • Uppit
| Uppit
HashesCRC32: C8C22821, MD5: 0F9A325025FE9F058B8F267A57B501F9, SHA1: 086DD4BD36336FA0567F7A76DD3BFFBAFCF3889D, SHA256: 287C0CE54E924B1BF2330A096D339F9D1DCDD521BF44621C389FBFAE69002763, ED2K: 515CBCE014591F64DFC753571CA57466
Screenshots
screenshotscreenshotscreenshotscreenshot
Additional Info
General
Unique ID                                : 227138616093704682578195701132918175820 (0xAAE14E64D655A121487475C0CBC2B84C)
Complete name                            : [ScarletNeko] Hand Maid May Ending Collection [AV1][AC3][C8C22821].mkv
Format                                   : Matroska
Format version                           : Version 4
File size                                : 49.3 MiB
Duration                                 : 3 min 56 s
Overall bit rate                         : 1 751 kb/s
Frame rate                               : 23.976 FPS
Movie name                               : Hand Maid May Ending Collection
Encoded date                             : 2024-03-31 05:21:40 UTC
Writing application                      : mkvmerge v83.0 ('Circle Of Friends') 64-bit
Writing library                          : libebml v1.4.5 + libmatroska v1.7.1

Video
ID                                       : 1
Format                                   : AV1
Format/Info                              : AOMedia Video 1
Format profile                           : Main@L3.0
Codec ID                                 : V_AV1
Duration                                 : 3 min 56 s
Bit rate                                 : 1 557 kb/s
Width                                    : 706 pixels
Height                                   : 480 pixels
Display aspect ratio                     : 4:3
Frame rate mode                          : Constant
Frame rate                               : 23.976 (24000/1001) FPS
Color space                              : YUV
Chroma subsampling                       : 4:2:0
Bit depth                                : 10 bits
Bits/(Pixel*Frame)                       : 0.192
Stream size                              : 43.8 MiB (89%)
Title                                    : BD Source | 480p AV1 10bit
Language                                 : Japanese
Default                                  : Yes
Forced                                   : No
Color range                              : Limited
Color primaries                          : BT.601 NTSC
Transfer characteristics                 : BT.601
Matrix coefficients                      : BT.601

Audio
ID                                       : 2
Format                                   : AC-3
Format/Info                              : Audio Coding 3
Commercial name                          : Dolby Digital
Codec ID                                 : A_AC3
Duration                                 : 3 min 56 s
Bit rate mode                            : Constant
Bit rate                                 : 192 kb/s
Channel(s)                               : 2 channels
Channel layout                           : L R
Sampling rate                            : 48.0 kHz
Frame rate                               : 31.250 FPS (1536 SPF)
Compression mode                         : Lossy
Stream size                              : 5.40 MiB (11%)
Title                                    : JPN Main | AC3 192k Stereo
Language                                 : Japanese
Service kind                             : Complete Main
Default                                  : Yes
Forced                                   : No

Menu
00:00:00.000                             : en:
00:01:14.775                             : en:
00:02:26.780                             : en:

Other Files in this Torrent
Extras/[ScarletNeko] Hand Maid May Ending Collection [AV1][AC3][C8C22821].mkv
beta
Anime DDL+NZB mirror
Current Time: 20/05/2024 21:54



About/FAQs

Discord