File Size541.6 MB (567,912,514 bytes)
DownloadClickNUpload | DailyUploads | DownloadGG | GoFile | KrakenFiles | MdiaLoad | Uppit
MultiUp: Part1
  • BdUpload
  • DownAce
  • Fichier
  • FileCloud
  • Filerio
  • FilesCdn
  • IndiShare
  • Kbagi
  • Turbobit
  • UpToBox
  • Uppit
, Part2
  • BdUpload
  • DownAce
  • Fichier
  • FileCloud
  • Filerio
  • FilesCdn
  • IndiShare
  • Kbagi
  • Turbobit
  • UpToBox
  • Uppit
HashesCRC32: C5B2EC18, MD5: D07378C969E2917C0662E9777BC78A78, SHA1: 448E6BEF73672956D4E7F8E90AB02F1D6E5BAAF9, SHA256: BFB28C15AEBC76F7E9DAA41AC0AB24B4286D007A9B6F1D9FF265940A0FB125BF, ED2K: F74EA54BF374288596985C1C698B6885
Screenshots
screenshotscreenshotscreenshotscreenshotscreenshot
SubtitlesAll Attachments | Signs & Songs [PGS] [eng, PGS], Dialogue [PGS] [eng, PGS]
Additional Info
General
Unique ID                                : 328902751386730284806893209819905018242 (0xF7705DA30493BAC210E7901DF1AC4982)
Complete name                            : [ScarletNeko] Hand Maid May 09 [540p][AV1][FLAC][C5B2EC18].mkv
Format                                   : Matroska
Format version                           : Version 4
File size                                : 542 MiB
Duration                                 : 23 min 13 s
Overall bit rate mode                    : Variable
Overall bit rate                         : 3 261 kb/s
Frame rate                               : 23.976 FPS
Movie name                               : Hand Maid May 09 - Besides That... I Believe You
Encoded date                             : 2024-03-16 01:04:04 UTC
Writing application                      : mkvmerge v83.0 ('Circle Of Friends') 64-bit
Writing library                          : libebml v1.4.5 + libmatroska v1.7.1

Video
ID                                       : 1
Format                                   : AV1
Format/Info                              : AOMedia Video 1
Format profile                           : High@L3.0
Codec ID                                 : V_AV1
Duration                                 : 23 min 13 s
Bit rate                                 : 1 784 kb/s
Width                                    : 690 pixels
Height                                   : 540 pixels
Display aspect ratio                     : 4:3
Frame rate mode                          : Constant
Frame rate                               : 23.976 (24000/1001) FPS
Color space                              : YUV
Chroma subsampling                       : 4:4:4
Bit depth                                : 10 bits
Bits/(Pixel*Frame)                       : 0.200
Stream size                              : 296 MiB (55%)
Title                                    : BD Source | DS540p AV1 10bit
Language                                 : Japanese
Default                                  : Yes
Forced                                   : No
Color range                              : Limited
Color primaries                          : BT.709
Transfer characteristics                 : BT.709
Matrix coefficients                      : BT.709

Audio #1
ID                                       : 2
Format                                   : FLAC
Format/Info                              : Free Lossless Audio Codec
Codec ID                                 : A_FLAC
Duration                                 : 23 min 13 s
Bit rate mode                            : Variable
Bit rate                                 : 789 kb/s
Channel(s)                               : 2 channels
Channel layout                           : L R
Sampling rate                            : 48.0 kHz
Frame rate                               : 11.719 FPS (4096 SPF)
Bit depth                                : 16 bits
Compression mode                         : Lossless
Stream size                              : 131 MiB (24%)
Title                                    : JPN Main | FLAC Stereo
Writing library                          : libFLAC 20240306 (2024-03-06)
Language                                 : Japanese
Default                                  : Yes
Forced                                   : No
MD5 of the unencoded content             : EEF4861D7FE96AA1BBD7EF951D297104

Audio #2
ID                                       : 3
Format                                   : FLAC
Format/Info                              : Free Lossless Audio Codec
Codec ID                                 : A_FLAC
Duration                                 : 23 min 13 s
Bit rate mode                            : Variable
Bit rate                                 : 660 kb/s
Channel(s)                               : 2 channels
Channel layout                           : L R
Sampling rate                            : 48.0 kHz
Frame rate                               : 11.719 FPS (4096 SPF)
Bit depth                                : 16 bits
Compression mode                         : Lossless
Stream size                              : 110 MiB (20%)
Title                                    : ENG Main | FLAC Stereo
Writing library                          : libFLAC 20240306 (2024-03-06)
Language                                 : English
Default                                  : No
Forced                                   : No
MD5 of the unencoded content             : 5C16F7BCA0A3146B45FA9B0D666B00EF

Text #1
ID                                       : 4
Format                                   : PGS
Muxing mode                              : zlib
Codec ID                                 : S_HDMV/PGS
Codec ID/Info                            : Picture based subtitle format used on BDs/HD-DVDs
Duration                                 : 23 min 9 s
Bit rate                                 : 7 393 b/s
Frame rate                               : 0.048 FPS
Count of elements                        : 67
Stream size                              : 1.23 MiB (0%)
Title                                    : Signs & Songs [PGS]
Language                                 : English
Default                                  : No
Forced                                   : Yes

Text #2
ID                                       : 5
Format                                   : PGS
Muxing mode                              : zlib
Codec ID                                 : S_HDMV/PGS
Codec ID/Info                            : Picture based subtitle format used on BDs/HD-DVDs
Duration                                 : 23 min 9 s
Bit rate                                 : 47.5 kb/s
Frame rate                               : 0.514 FPS
Count of elements                        : 714
Stream size                              : 7.87 MiB (1%)
Title                                    : Dialogue [PGS]
Language                                 : English
Default                                  : Yes
Forced                                   : No

Menu
00:00:00.000                             : en:Opening
00:01:29.089                             : en:Part A
00:12:17.236                             : en:Part B
00:21:45.304                             : en:Ending
00:22:58.377                             : en:Preview

Other Files in this Torrent
[ScarletNeko] Hand Maid May 09 [540p][AV1][FLAC][C5B2EC18].mkv
beta
Anime DDL+NZB mirror
Current Time: 13/06/2024 03:37



About/FAQs

Discord