Extras/[ScarletNeko] Hand Maid May CBD Menu [AV1][FLAC][AC3][PGS][FF2371F9].mkv


File Size249.1 MB (261,244,961 bytes)
DownloadClickNUpload | DailyUploads | DownloadGG | GoFile | KrakenFiles | MdiaLoad | MultiUp
  • BdUpload
  • DownAce
  • Fichier
  • FileCloud
  • Filerio
  • FilesCdn
  • IndiShare
  • Kbagi
  • Turbobit
  • UpToBox
  • Uppit
| Uppit
HashesCRC32: FF2371F9, MD5: 8C3F55DFF37185BF9C3A4E60C86BB28B, SHA1: 092C50FF266524E84725A9C0D0C5DD150250CD8D, SHA256: D32241DD8D15387B69F46C4C8D8D3565A2A923AB91E03DC4527E78B51D109840, ED2K: AA3B370AB99B59BD980B619EB2290F45
Screenshots
screenshotscreenshotscreenshotscreenshotscreenshot
SubtitlesAll Attachments | Signs [PGS] [eng, PGS], Dialogue [PGS] [eng, PGS]
Additional Info
General
Unique ID                                : 31315731522091537977896935361518503982 (0x178F30C50F0DD60A54B84E736710082E)
Complete name                            : [ScarletNeko] Hand Maid May CBD Menu [AV1][FLAC][AC3][PGS][FF2371F9].mkv
Format                                   : Matroska
Format version                           : Version 4
File size                                : 249 MiB
Duration                                 : 7 min 44 s
Overall bit rate mode                    : Variable
Overall bit rate                         : 4 503 kb/s
Frame rate                               : 59.940 FPS
Movie name                               : Hand Maid May CBD Menu
Encoded date                             : 2024-03-31 05:39:10 UTC
Writing application                      : mkvmerge v83.0 ('Circle Of Friends') 64-bit
Writing library                          : libebml v1.4.5 + libmatroska v1.7.1

Video
ID                                       : 1
Format                                   : AV1
Format/Info                              : AOMedia Video 1
Format profile                           : Main@L3.1
Codec ID                                 : V_AV1
Duration                                 : 7 min 44 s
Bit rate                                 : 3 799 kb/s
Width                                    : 706 pixels
Height                                   : 480 pixels
Display aspect ratio                     : 4:3
Frame rate mode                          : Constant
Frame rate                               : 59.940 (60000/1001) FPS
Color space                              : YUV
Chroma subsampling                       : 4:2:0
Bit depth                                : 10 bits
Bits/(Pixel*Frame)                       : 0.187
Stream size                              : 210 MiB (84%)
Title                                    : BD Source | 480p AV1 10bit
Language                                 : Japanese
Default                                  : Yes
Forced                                   : No
Color range                              : Limited
Color primaries                          : BT.601 NTSC
Transfer characteristics                 : BT.601
Matrix coefficients                      : BT.601

Audio #1
ID                                       : 2
Format                                   : AC-3
Format/Info                              : Audio Coding 3
Commercial name                          : Dolby Digital
Codec ID                                 : A_AC3
Duration                                 : 7 min 44 s
Bit rate mode                            : Constant
Bit rate                                 : 256 kb/s
Channel(s)                               : 2 channels
Channel layout                           : L R
Sampling rate                            : 48.0 kHz
Frame rate                               : 31.250 FPS (1536 SPF)
Compression mode                         : Lossy
Stream size                              : 14.2 MiB (6%)
Title                                    : JPN Main | AC3 256k Stereo
Language                                 : Japanese
Service kind                             : Complete Main
Default                                  : Yes
Forced                                   : No

Audio #2
ID                                       : 3
Format                                   : FLAC
Format/Info                              : Free Lossless Audio Codec
Codec ID                                 : A_FLAC
Duration                                 : 7 min 44 s
Bit rate mode                            : Variable
Bit rate                                 : 434 kb/s
Channel(s)                               : 2 channels
Channel layout                           : L R
Sampling rate                            : 48.0 kHz
Frame rate                               : 11.720 FPS (4096 SPF)
Bit depth                                : 16 bits
Compression mode                         : Lossless
Stream size                              : 24.0 MiB (10%)
Title                                    : ENG Main | FLAC Stereo
Writing library                          : libFLAC 1.4.3 (2023-06-23)
Language                                 : English
Default                                  : No
Forced                                   : No
MD5 of the unencoded content             : 338E3771D0F4C8854ACA74096E98832D

Text #1
ID                                       : 4
Format                                   : PGS
Muxing mode                              : zlib
Codec ID                                 : S_HDMV/PGS
Codec ID/Info                            : Picture based subtitle format used on BDs/HD-DVDs
Duration                                 : 33 ms
Bit rate                                 : 1 641 kb/s
Frame rate                               : 60.606 FPS
Count of elements                        : 2
Stream size                              : 6.61 KiB (0%)
Title                                    : Signs [PGS]
Language                                 : English
Default                                  : No
Forced                                   : Yes

Text #2
ID                                       : 5
Format                                   : PGS
Muxing mode                              : zlib
Codec ID                                 : S_HDMV/PGS
Codec ID/Info                            : Picture based subtitle format used on BDs/HD-DVDs
Duration                                 : 7 min 29 s
Bit rate                                 : 20.0 kb/s
Frame rate                               : 0.389 FPS
Count of elements                        : 175
Stream size                              : 1.07 MiB (0%)
Title                                    : Dialogue [PGS]
Language                                 : English
Default                                  : Yes
Forced                                   : No

Menu
00:00:00.000                             : en:Main Menu
00:00:45.012                             : en:CBD May Level 1
00:01:12.039                             : en:CBD May Level 2
00:01:33.060                             : en:CBD May Level 3
00:01:52.079                             : en:CBD May Level 4
00:02:16.603                             : en:CBD Rena Level 1
00:02:38.625                             : en:CBD Rena Level 2
00:02:55.642                             : en:CBD Rena Level 3
00:03:26.673                             : en:CBD Rena Level 4
00:03:54.768                             : en:CBD Sala Level 1
00:04:08.782                             : en:CBD Sala Level 2
00:04:31.805                             : en:CBD Sala Level 3
00:04:54.828                             : en:CBD Sala Level 4
00:05:20.854                             : en:CBD Kei Level 1
00:05:46.546                             : en:CBD Kei Level 2
00:06:03.563                             : en:CBD Kei Level 3
00:06:11.571                             : en:CBD Kei Level 4
00:06:40.100                             : en:CBD Mami Level 1
00:07:03.123                             : en:CBD Mami Level 2

Other Files in this Torrent
Extras/[ScarletNeko] Hand Maid May CBD Menu [AV1][FLAC][AC3][PGS][FF2371F9].mkv
beta
Anime DDL+NZB mirror
Current Time: 20/05/2024 21:35



About/FAQs

Discord