File Size538.0 MB (564,123,557 bytes)
DownloadClickNUpload | DailyUploads | DownloadGG | GoFile | KrakenFiles | MdiaLoad | Uppit
MultiUp: Part1
  • BdUpload
  • DownAce
  • Fichier
  • FileCloud
  • Filerio
  • FilesCdn
  • IndiShare
  • Kbagi
  • Turbobit
  • UpToBox
  • Uppit
, Part2
  • BdUpload
  • DownAce
  • Fichier
  • FileCloud
  • Filerio
  • FilesCdn
  • IndiShare
  • Kbagi
  • Turbobit
  • UpToBox
  • Uppit
HashesCRC32: 650CBB1B, MD5: D424CA7FDA1769720A13D4BFCE41E781, SHA1: 3A10998EAF84DFC9085949BA2F50C9334F8CD611, SHA256: E5165F84FBF065D7E5FBA31EF13A0F3943049F52041299DA0FDEDF189DFBDD11, ED2K: 3610AE879FA37E53ADAC9556094E8F0F
Screenshots
screenshotscreenshotscreenshotscreenshotscreenshot
SubtitlesAll Attachments | Signs & Songs [PGS] [eng, PGS], Dialogue [PGS] [eng, PGS]
Additional Info
General
Unique ID                                : 164516877758152638756812332349045290553 (0x7BC4CC51CC84462B6A666CF69E773639)
Complete name                            : [ScarletNeko] Hand Maid May 07 [540p][AV1][FLAC][650CBB1B].mkv
Format                                   : Matroska
Format version                           : Version 4
File size                                : 538 MiB
Duration                                 : 22 min 59 s
Overall bit rate mode                    : Variable
Overall bit rate                         : 3 272 kb/s
Frame rate                               : 23.976 FPS
Movie name                               : Hand Maid May 07 - I Don't Have Much Time?
Encoded date                             : 2024-03-16 01:02:38 UTC
Writing application                      : mkvmerge v83.0 ('Circle Of Friends') 64-bit
Writing library                          : libebml v1.4.5 + libmatroska v1.7.1

Video
ID                                       : 1
Format                                   : AV1
Format/Info                              : AOMedia Video 1
Format profile                           : High@L3.0
Codec ID                                 : V_AV1
Duration                                 : 22 min 59 s
Bit rate                                 : 1 892 kb/s
Width                                    : 690 pixels
Height                                   : 540 pixels
Display aspect ratio                     : 4:3
Frame rate mode                          : Constant
Frame rate                               : 23.976 (24000/1001) FPS
Color space                              : YUV
Chroma subsampling                       : 4:4:4
Bit depth                                : 10 bits
Bits/(Pixel*Frame)                       : 0.212
Stream size                              : 311 MiB (58%)
Title                                    : BD Source | DS540p AV1 10bit
Language                                 : Japanese
Default                                  : Yes
Forced                                   : No
Color range                              : Limited
Color primaries                          : BT.709
Transfer characteristics                 : BT.709
Matrix coefficients                      : BT.709

Audio #1
ID                                       : 2
Format                                   : FLAC
Format/Info                              : Free Lossless Audio Codec
Codec ID                                 : A_FLAC
Duration                                 : 22 min 59 s
Bit rate mode                            : Variable
Bit rate                                 : 689 kb/s
Channel(s)                               : 2 channels
Channel layout                           : L R
Sampling rate                            : 48.0 kHz
Frame rate                               : 11.719 FPS (4096 SPF)
Bit depth                                : 16 bits
Compression mode                         : Lossless
Stream size                              : 113 MiB (21%)
Title                                    : JPN Main | FLAC Stereo
Writing library                          : libFLAC 20240306 (2024-03-06)
Language                                 : Japanese
Default                                  : Yes
Forced                                   : No
MD5 of the unencoded content             : 3F2AD6D45F233C69C4C90C42C6E6647F

Audio #2
ID                                       : 3
Format                                   : FLAC
Format/Info                              : Free Lossless Audio Codec
Codec ID                                 : A_FLAC
Duration                                 : 22 min 59 s
Bit rate mode                            : Variable
Bit rate                                 : 661 kb/s
Channel(s)                               : 2 channels
Channel layout                           : L R
Sampling rate                            : 48.0 kHz
Frame rate                               : 11.719 FPS (4096 SPF)
Bit depth                                : 16 bits
Compression mode                         : Lossless
Stream size                              : 109 MiB (20%)
Title                                    : ENG Main | FLAC Stereo
Writing library                          : libFLAC 20240306 (2024-03-06)
Language                                 : English
Default                                  : No
Forced                                   : No
MD5 of the unencoded content             : 3F7C1BED458BBAB1D237AF76851F2C57

Text #1
ID                                       : 4
Format                                   : PGS
Muxing mode                              : zlib
Codec ID                                 : S_HDMV/PGS
Codec ID/Info                            : Picture based subtitle format used on BDs/HD-DVDs
Duration                                 : 22 min 55 s
Bit rate                                 : 7 234 b/s
Frame rate                               : 0.042 FPS
Count of elements                        : 58
Stream size                              : 1.19 MiB (0%)
Title                                    : Signs & Songs [PGS]
Language                                 : English
Default                                  : No
Forced                                   : Yes

Text #2
ID                                       : 5
Format                                   : PGS
Muxing mode                              : zlib
Codec ID                                 : S_HDMV/PGS
Codec ID/Info                            : Picture based subtitle format used on BDs/HD-DVDs
Duration                                 : 22 min 55 s
Bit rate                                 : 50.3 kb/s
Frame rate                               : 0.549 FPS
Count of elements                        : 756
Stream size                              : 8.25 MiB (2%)
Title                                    : Dialogue [PGS]
Language                                 : English
Default                                  : Yes
Forced                                   : No

Menu
00:00:00.000                             : en:Opening
00:01:29.089                             : en:Part A
00:11:25.143                             : en:Part B
00:21:31.290                             : en:Ending
00:22:44.363                             : en:Preview

Other Files in this Torrent
[ScarletNeko] Hand Maid May 07 [540p][AV1][FLAC][650CBB1B].mkv
beta
Anime DDL+NZB mirror
Current Time: 18/05/2024 10:45



About/FAQs

Discord