Extras/[ScarletNeko] Hand Maid May Opening Collection [AV1][AC3][1B510490].mkv


File Size57.39 MB (60,174,207 bytes)
DownloadClickNUpload | DailyUploads | DownloadGG | GoFile | KrakenFiles | MdiaLoad | MultiUp
  • BdUpload
  • DownAce
  • Fichier
  • FileCloud
  • Filerio
  • FilesCdn
  • IndiShare
  • Kbagi
  • Turbobit
  • UpToBox
  • Uppit
| Uppit
HashesCRC32: 1B510490, MD5: 256763D739EF04AD5F98039E758D297C, SHA1: CCAE093A99F7CC6F664191842F373C01B989E957, SHA256: 9F46C1C3FCCBC200904BA84534ECDAE9471344989270A7A3B57B2A7AB166A891, ED2K: 96C94A3AF85CBC8268B951044CE623E9
Screenshots
screenshotscreenshotscreenshot
Additional Info
General
Unique ID                                : 190760163085527358375082424187390066822 (0x8F83122EE879FA6448E5B95A58850086)
Complete name                            : [ScarletNeko] Hand Maid May Opening Collection [AV1][AC3][1B510490].mkv
Format                                   : Matroska
Format version                           : Version 4
File size                                : 57.4 MiB
Duration                                 : 3 min 1 s
Overall bit rate                         : 2 648 kb/s
Frame rate                               : 23.976 FPS
Movie name                               : Hand Maid May Opening Collection
Encoded date                             : 2024-03-31 05:20:26 UTC
Writing application                      : mkvmerge v83.0 ('Circle Of Friends') 64-bit
Writing library                          : libebml v1.4.5 + libmatroska v1.7.1

Video
ID                                       : 1
Format                                   : AV1
Format/Info                              : AOMedia Video 1
Format profile                           : Main@L3.0
Codec ID                                 : V_AV1
Duration                                 : 3 min 1 s
Bit rate                                 : 2 454 kb/s
Width                                    : 706 pixels
Height                                   : 480 pixels
Display aspect ratio                     : 4:3
Frame rate mode                          : Constant
Frame rate                               : 23.976 (24000/1001) FPS
Color space                              : YUV
Chroma subsampling                       : 4:2:0
Bit depth                                : 10 bits
Bits/(Pixel*Frame)                       : 0.302
Stream size                              : 53.2 MiB (93%)
Title                                    : BD Source | 480p AV1 10bit
Language                                 : Japanese
Default                                  : Yes
Forced                                   : No
Color range                              : Limited
Color primaries                          : BT.601 NTSC
Transfer characteristics                 : BT.601
Matrix coefficients                      : BT.601

Audio
ID                                       : 2
Format                                   : AC-3
Format/Info                              : Audio Coding 3
Commercial name                          : Dolby Digital
Codec ID                                 : A_AC3
Duration                                 : 3 min 1 s
Bit rate mode                            : Constant
Bit rate                                 : 192 kb/s
Channel(s)                               : 2 channels
Channel layout                           : L R
Sampling rate                            : 48.0 kHz
Frame rate                               : 31.250 FPS (1536 SPF)
Compression mode                         : Lossy
Stream size                              : 4.16 MiB (7%)
Title                                    : JPN Main | AC3 192k Stereo
Language                                 : Japanese
Service kind                             : Complete Main
Default                                  : Yes
Forced                                   : No

Menu
00:00:00.000                             : en:
00:01:33.293                             : en:

Other Files in this Torrent
Extras/[ScarletNeko] Hand Maid May Opening Collection [AV1][AC3][1B510490].mkv
beta
Anime DDL+NZB mirror
Current Time: 20/05/2024 21:01



About/FAQs

Discord