File Size556.0 MB (583,040,954 bytes)
DownloadClickNUpload | DailyUploads | DownloadGG | GoFile | KrakenFiles | MdiaLoad | Uppit
MultiUp: Part1
  • BdUpload
  • DownAce
  • Fichier
  • FileCloud
  • Filerio
  • FilesCdn
  • IndiShare
  • Kbagi
  • Turbobit
  • UpToBox
  • Uppit
, Part2
  • BdUpload
  • DownAce
  • Fichier
  • FileCloud
  • Filerio
  • FilesCdn
  • IndiShare
  • Kbagi
  • Turbobit
  • UpToBox
  • Uppit
HashesCRC32: 052CF54E, MD5: D1DC24BC5121E8566A01AD508582F247, SHA1: 0A0ECB5EBEEFB66D53040E03B9A0D3EF16577D09, SHA256: EEA4E7890BAA4E9CDC2E4BDA29FB34C5C2C7863A6C87F800DCBAB0C93858547B, ED2K: 62BCC424CF0342621F57775ED65A5A34
Screenshots
screenshotscreenshotscreenshotscreenshotscreenshot
SubtitlesAll Attachments | Signs & Songs [PGS] [eng, PGS], Dialogue [PGS] [eng, PGS]
Additional Info
General
Unique ID                                : 211361142310715194985686441360397427213 (0x9F02ACE0D4150CDC47E67CA4A5A3E20D)
Complete name                            : [ScarletNeko] Hand Maid May 06 [540p][AV1][FLAC][052CF54E].mkv
Format                                   : Matroska
Format version                           : Version 4
File size                                : 556 MiB
Duration                                 : 23 min 14 s
Overall bit rate mode                    : Variable
Overall bit rate                         : 3 345 kb/s
Frame rate                               : 23.976 FPS
Movie name                               : Hand Maid May 06 - More! More!
Encoded date                             : 2024-03-16 01:01:55 UTC
Writing application                      : mkvmerge v83.0 ('Circle Of Friends') 64-bit
Writing library                          : libebml v1.4.5 + libmatroska v1.7.1

Video
ID                                       : 1
Format                                   : AV1
Format/Info                              : AOMedia Video 1
Format profile                           : High@L3.0
Codec ID                                 : V_AV1
Duration                                 : 23 min 14 s
Bit rate                                 : 1 913 kb/s
Width                                    : 690 pixels
Height                                   : 540 pixels
Display aspect ratio                     : 4:3
Frame rate mode                          : Constant
Frame rate                               : 23.976 (24000/1001) FPS
Color space                              : YUV
Chroma subsampling                       : 4:4:4
Bit depth                                : 10 bits
Bits/(Pixel*Frame)                       : 0.214
Stream size                              : 318 MiB (57%)
Title                                    : BD Source | DS540p AV1 10bit
Language                                 : Japanese
Default                                  : Yes
Forced                                   : No
Color range                              : Limited
Color primaries                          : BT.709
Transfer characteristics                 : BT.709
Matrix coefficients                      : BT.709

Audio #1
ID                                       : 2
Format                                   : FLAC
Format/Info                              : Free Lossless Audio Codec
Codec ID                                 : A_FLAC
Duration                                 : 23 min 14 s
Bit rate mode                            : Variable
Bit rate                                 : 727 kb/s
Channel(s)                               : 2 channels
Channel layout                           : L R
Sampling rate                            : 48.0 kHz
Frame rate                               : 11.719 FPS (4096 SPF)
Bit depth                                : 16 bits
Compression mode                         : Lossless
Stream size                              : 121 MiB (22%)
Title                                    : JPN Main | FLAC Stereo
Writing library                          : libFLAC 20240306 (2024-03-06)
Language                                 : Japanese
Default                                  : Yes
Forced                                   : No
MD5 of the unencoded content             : FA6F1FE8F2A16C9932A896E55CE701BA

Audio #2
ID                                       : 3
Format                                   : FLAC
Format/Info                              : Free Lossless Audio Codec
Codec ID                                 : A_FLAC
Duration                                 : 23 min 14 s
Bit rate mode                            : Variable
Bit rate                                 : 676 kb/s
Channel(s)                               : 2 channels
Channel layout                           : L R
Sampling rate                            : 48.0 kHz
Frame rate                               : 11.719 FPS (4096 SPF)
Bit depth                                : 16 bits
Compression mode                         : Lossless
Stream size                              : 112 MiB (20%)
Title                                    : ENG Main | FLAC Stereo
Writing library                          : libFLAC 20240306 (2024-03-06)
Language                                 : English
Default                                  : No
Forced                                   : No
MD5 of the unencoded content             : B38BF38D377D18B6A6B229F484382221

Text #1
ID                                       : 4
Format                                   : PGS
Muxing mode                              : zlib
Codec ID                                 : S_HDMV/PGS
Codec ID/Info                            : Picture based subtitle format used on BDs/HD-DVDs
Duration                                 : 23 min 10 s
Bit rate                                 : 7 753 b/s
Frame rate                               : 0.050 FPS
Count of elements                        : 70
Stream size                              : 1.29 MiB (0%)
Title                                    : Signs & Songs [PGS]
Language                                 : English
Default                                  : No
Forced                                   : Yes

Text #2
ID                                       : 5
Format                                   : PGS
Muxing mode                              : zlib
Codec ID                                 : S_HDMV/PGS
Codec ID/Info                            : Picture based subtitle format used on BDs/HD-DVDs
Duration                                 : 23 min 10 s
Bit rate                                 : 52.1 kb/s
Frame rate                               : 0.535 FPS
Count of elements                        : 744
Stream size                              : 8.64 MiB (2%)
Title                                    : Dialogue [PGS]
Language                                 : English
Default                                  : Yes
Forced                                   : No

Menu
00:00:00.000                             : en:Opening
00:01:29.089                             : en:Part A
00:10:37.804                             : en:Part B
00:21:46.305                             : en:Ending
00:22:59.378                             : en:Preview

Other Files in this Torrent
[ScarletNeko] Hand Maid May 06 [540p][AV1][FLAC][052CF54E].mkv
beta
Anime DDL+NZB mirror
Current Time: 13/06/2024 04:06



About/FAQs

Discord