Extras/[ScarletNeko] Hand Maid May Discotek Trailers [AV1][AC3][DFE55407].mkv


File Size202.5 MB (212,360,536 bytes)
DownloadClickNUpload | DailyUploads | DownloadGG | GoFile | KrakenFiles | MdiaLoad | MultiUp
  • BdUpload
  • DownAce
  • Fichier
  • FileCloud
  • Filerio
  • FilesCdn
  • IndiShare
  • Kbagi
  • Turbobit
  • UpToBox
  • Uppit
| Uppit
HashesCRC32: DFE55407, MD5: 805C57CF0934AA9541FFD9F67E5633E9, SHA1: 5B059E6D1258164FD222AF8D67876A7C68C721BA, SHA256: 19D675106266B08CBED0679799A1E873640671C9F05E4A181125FD99F532BE01, ED2K: 3E22D48A519A3F0C2952F09513E0DAC6
Screenshots
screenshotscreenshot
Additional Info
General
Unique ID                                : 129367417093061740996426027644774221280 (0x6153421C10F1D570A8F450896BD385E0)
Complete name                            : [ScarletNeko] Hand Maid May Discotek Trailers [AV1][AC3][DFE55407].mkv
Format                                   : Matroska
Format version                           : Version 4
File size                                : 203 MiB
Duration                                 : 2 min 3 s
Overall bit rate                         : 13.7 Mb/s
Frame rate                               : 23.976 FPS
Movie name                               : Hand Maid May Discotek Trailers
Encoded date                             : 2024-03-31 05:15:27 UTC
Writing application                      : mkvmerge v83.0 ('Circle Of Friends') 64-bit
Writing library                          : libebml v1.4.5 + libmatroska v1.7.1

Video
ID                                       : 1
Format                                   : AV1
Format/Info                              : AOMedia Video 1
Format profile                           : Main@L4.0
Codec ID                                 : V_AV1
Duration                                 : 2 min 3 s
Bit rate                                 : 13.5 Mb/s
Width                                    : 1 920 pixels
Height                                   : 1 080 pixels
Display aspect ratio                     : 16:9
Frame rate mode                          : Constant
Frame rate                               : 23.976 (24000/1001) FPS
Color space                              : YUV
Chroma subsampling                       : 4:2:0
Bit depth                                : 10 bits
Bits/(Pixel*Frame)                       : 0.272
Stream size                              : 200 MiB (99%)
Title                                    : BD Source | 1080p AV1 10bit
Language                                 : Japanese
Default                                  : Yes
Forced                                   : No
Color range                              : Limited
Color primaries                          : BT.709
Transfer characteristics                 : BT.709
Matrix coefficients                      : BT.709

Audio
ID                                       : 2
Format                                   : AC-3
Format/Info                              : Audio Coding 3
Commercial name                          : Dolby Digital
Codec ID                                 : A_AC3
Duration                                 : 2 min 3 s
Bit rate mode                            : Constant
Bit rate                                 : 192 kb/s
Channel(s)                               : 2 channels
Channel layout                           : L R
Sampling rate                            : 48.0 kHz
Frame rate                               : 31.250 FPS (1536 SPF)
Compression mode                         : Lossy
Stream size                              : 2.83 MiB (1%)
Title                                    : JPN Main | AC3 192k Stereo
Language                                 : Japanese
Service kind                             : Complete Main
Default                                  : Yes
Forced                                   : No

Menu
00:00:00.000                             : en:Discotek Intro
00:00:04.713                             : en:Ultimate Muscle
00:00:18.769                             : en:Iria: Zeiram The Animation
00:00:33.075                             : en:Cromartie High School
00:00:48.298                             : en:Animal Treasure Island
00:01:04.523                             : en:Aim for the Ace
00:01:18.996                             : en:Mazinkaiser vs Great General of Darkness
00:01:33.510                             : en:Re:Cutie Honey
00:01:49.443                             : en:Discotek Outro

Other Files in this Torrent
Extras/[ScarletNeko] Hand Maid May Discotek Trailers [AV1][AC3][DFE55407].mkv
beta
Anime DDL+NZB mirror
Current Time: 20/05/2024 21:27



About/FAQs

Discord