File Size489.3 MB (513,092,766 bytes)
DownloadClickNUpload | DailyUploads | DownloadGG | GoFile | KrakenFiles | MdiaLoad | MultiUp
  • BdUpload
  • DownAce
  • Fichier
  • FileCloud
  • Filerio
  • FilesCdn
  • IndiShare
  • Kbagi
  • Turbobit
  • UpToBox
  • Uppit
| Uppit
HashesCRC32: 633F1E5C, MD5: 90C2239C986882C79861B609BF965BF9, SHA1: 314F295F0DC9A12EB54BD01B44ED5F29444CDC7D, SHA256: A30E01E7785F915A14E3E0EAA92C457841711C54C7C48146D2C637A1C5E517F4, ED2K: 130834F7427614D7A0C75728F5DF5A3C
Screenshots
screenshotscreenshotscreenshotscreenshotscreenshot
SubtitlesAll Attachments | Signs & Songs [PGS] [eng, PGS], Dialogue [PGS] [eng, PGS]
Additional Info
General
Unique ID                                : 251700217393819143626594203770241901774 (0xBD5BB2D566DD8CDC060BE757725F64CE)
Complete name                            : [ScarletNeko] Hand Maid May 03 [540p][AV1][FLAC][633F1E5C].mkv
Format                                   : Matroska
Format version                           : Version 4
File size                                : 489 MiB
Duration                                 : 22 min 59 s
Overall bit rate mode                    : Variable
Overall bit rate                         : 2 976 kb/s
Frame rate                               : 23.976 FPS
Movie name                               : Hand Maid May 03 - What Should I Do?
Encoded date                             : 2024-03-16 00:59:39 UTC
Writing application                      : mkvmerge v83.0 ('Circle Of Friends') 64-bit
Writing library                          : libebml v1.4.5 + libmatroska v1.7.1

Video
ID                                       : 1
Format                                   : AV1
Format/Info                              : AOMedia Video 1
Format profile                           : High@L3.0
Codec ID                                 : V_AV1
Duration                                 : 22 min 59 s
Bit rate                                 : 1 524 kb/s
Width                                    : 690 pixels
Height                                   : 540 pixels
Display aspect ratio                     : 4:3
Frame rate mode                          : Constant
Frame rate                               : 23.976 (24000/1001) FPS
Color space                              : YUV
Chroma subsampling                       : 4:4:4
Bit depth                                : 10 bits
Bits/(Pixel*Frame)                       : 0.171
Stream size                              : 251 MiB (51%)
Title                                    : BD Source | DS540p AV1 10bit
Language                                 : Japanese
Default                                  : Yes
Forced                                   : No
Color range                              : Limited
Color primaries                          : BT.709
Transfer characteristics                 : BT.709
Matrix coefficients                      : BT.709

Audio #1
ID                                       : 2
Format                                   : FLAC
Format/Info                              : Free Lossless Audio Codec
Codec ID                                 : A_FLAC
Duration                                 : 22 min 59 s
Bit rate mode                            : Variable
Bit rate                                 : 759 kb/s
Channel(s)                               : 2 channels
Channel layout                           : L R
Sampling rate                            : 48.0 kHz
Frame rate                               : 11.719 FPS (4096 SPF)
Bit depth                                : 16 bits
Compression mode                         : Lossless
Stream size                              : 125 MiB (26%)
Title                                    : JPN Main | FLAC Stereo
Writing library                          : libFLAC 20240306 (2024-03-06)
Language                                 : Japanese
Default                                  : Yes
Forced                                   : No
MD5 of the unencoded content             : 34FE09A144CD66526D0FD6BDBD0F4FF7

Audio #2
ID                                       : 3
Format                                   : FLAC
Format/Info                              : Free Lossless Audio Codec
Codec ID                                 : A_FLAC
Duration                                 : 22 min 59 s
Bit rate mode                            : Variable
Bit rate                                 : 665 kb/s
Channel(s)                               : 2 channels
Channel layout                           : L R
Sampling rate                            : 48.0 kHz
Frame rate                               : 11.719 FPS (4096 SPF)
Bit depth                                : 16 bits
Compression mode                         : Lossless
Stream size                              : 109 MiB (22%)
Title                                    : ENG Main | FLAC Stereo
Writing library                          : libFLAC 20240306 (2024-03-06)
Language                                 : English
Default                                  : No
Forced                                   : No
MD5 of the unencoded content             : 777EC350925DC4F6024D591AF6E4B9F4

Text #1
ID                                       : 4
Format                                   : PGS
Muxing mode                              : zlib
Codec ID                                 : S_HDMV/PGS
Codec ID/Info                            : Picture based subtitle format used on BDs/HD-DVDs
Duration                                 : 22 min 55 s
Bit rate                                 : 7 216 b/s
Frame rate                               : 0.044 FPS
Count of elements                        : 60
Stream size                              : 1.18 MiB (0%)
Title                                    : Signs & Songs [PGS]
Language                                 : English
Default                                  : No
Forced                                   : Yes

Text #2
ID                                       : 5
Format                                   : PGS
Muxing mode                              : zlib
Codec ID                                 : S_HDMV/PGS
Codec ID/Info                            : Picture based subtitle format used on BDs/HD-DVDs
Duration                                 : 22 min 55 s
Bit rate                                 : 45.3 kb/s
Frame rate                               : 0.539 FPS
Count of elements                        : 742
Stream size                              : 7.43 MiB (2%)
Title                                    : Dialogue [PGS]
Language                                 : English
Default                                  : Yes
Forced                                   : No

Menu
00:00:00.000                             : en:Opening
00:01:29.089                             : en:Part A
00:11:28.688                             : en:Part B
00:21:31.290                             : en:Ending
00:22:44.363                             : en:Preview

Other Files in this Torrent
[ScarletNeko] Hand Maid May 03 [540p][AV1][FLAC][633F1E5C].mkv
beta
Anime DDL+NZB mirror
Current Time: 20/05/2024 22:47



About/FAQs

Discord