Extras/[ScarletNeko] Hand Maid May CM Collection [AV1][AC3][PGS][B31CF98D].mkv


File Size86.65 MB (90,855,149 bytes)
DownloadClickNUpload | DailyUploads | DownloadGG | GoFile | KrakenFiles | MdiaLoad | MultiUp
  • BdUpload
  • DownAce
  • Fichier
  • FileCloud
  • Filerio
  • FilesCdn
  • IndiShare
  • Kbagi
  • Turbobit
  • UpToBox
  • Uppit
| Uppit
HashesCRC32: B31CF98D, MD5: B14D7D28EFCEE7E9E73AB5D194BE3336, SHA1: AA84083B089798766A620FCE03413C71770A81FD, SHA256: 73ADC32DF95DF82B80ACADF626C424DCF8BB55425C73CEBB3E17EB513B042AF7, ED2K: 7CFEA925278CE386A2A80CF72097EAF5
Screenshots
screenshotscreenshotscreenshotscreenshot
SubtitlesAll Attachments | Full Subs [PGS] [eng, PGS]
Additional Info
General
Unique ID                                : 303194146836919538544362317729470746163 (0xE41911921A8FB8DEAC5F06B6D0AE0E33)
Complete name                            : [ScarletNeko] Hand Maid May CM Collection [AV1][AC3][PGS][B31CF98D].mkv
Format                                   : Matroska
Format version                           : Version 4
File size                                : 86.6 MiB
Duration                                 : 3 min 35 s
Overall bit rate                         : 3 380 kb/s
Frame rate                               : 23.976 FPS
Movie name                               : Hand Maid May CM Collection
Encoded date                             : 2024-04-02 15:05:46 UTC
Writing application                      : mkvmerge v83.0 ('Circle Of Friends') 64-bit
Writing library                          : libebml v1.4.5 + libmatroska v1.7.1

Video
ID                                       : 1
Format                                   : AV1
Format/Info                              : AOMedia Video 1
Format profile                           : Main@L3.0
Codec ID                                 : V_AV1
Duration                                 : 3 min 35 s
Bit rate                                 : 3 164 kb/s
Width                                    : 706 pixels
Height                                   : 480 pixels
Display aspect ratio                     : 4:3
Frame rate mode                          : Constant
Frame rate                               : 23.976 (24000/1001) FPS
Color space                              : YUV
Chroma subsampling                       : 4:2:0
Bit depth                                : 10 bits
Bits/(Pixel*Frame)                       : 0.389
Stream size                              : 81.1 MiB (94%)
Title                                    : BD Source | 480p AV1 10bit
Language                                 : Japanese
Default                                  : Yes
Forced                                   : No
Color range                              : Limited
Color primaries                          : BT.601 NTSC
Transfer characteristics                 : BT.601
Matrix coefficients                      : BT.601

Audio
ID                                       : 2
Format                                   : AC-3
Format/Info                              : Audio Coding 3
Commercial name                          : Dolby Digital
Codec ID                                 : A_AC3
Duration                                 : 3 min 35 s
Bit rate mode                            : Constant
Bit rate                                 : 192 kb/s
Channel(s)                               : 2 channels
Channel layout                           : L R
Sampling rate                            : 48.0 kHz
Frame rate                               : 31.250 FPS (1536 SPF)
Compression mode                         : Lossy
Stream size                              : 4.92 MiB (6%)
Title                                    : JPN Main | AC3 192k Stereo
Language                                 : Japanese
Service kind                             : Complete Main
Default                                  : Yes
Forced                                   : No

Text
ID                                       : 3
Format                                   : PGS
Muxing mode                              : zlib
Codec ID                                 : S_HDMV/PGS
Codec ID/Info                            : Picture based subtitle format used on BDs/HD-DVDs
Duration                                 : 3 min 30 s
Bit rate                                 : 44.4 kb/s
Frame rate                               : 0.604 FPS
Count of elements                        : 127
Stream size                              : 1.11 MiB (1%)
Title                                    : Full Subs [PGS]
Language                                 : English
Default                                  : No
Forced                                   : Yes

Menu
00:00:00.000                             : en:
00:00:30.998                             : en:
00:01:01.028                             : en:
00:01:16.043                             : en:
00:01:31.058                             : en:
00:02:01.088                             : en:
00:02:31.118                             : en:
00:02:46.133                             : en:
00:03:02.149                             : en:
00:03:18.165                             : en:

Other Files in this Torrent
Extras/[ScarletNeko] Hand Maid May CM Collection [AV1][AC3][PGS][B31CF98D].mkv
beta
Anime DDL+NZB mirror
Current Time: 18/05/2024 10:08



About/FAQs

Discord