[Oyasumi]_Welcome_to_the_NHK!_24_[A01C6C62].mkv


File Size171.1 MB (179,372,887 bytes)
DownloadAnonFiles | ClickNUpload | DownloadGG | DropAPK | MultiUp
  • BdUpload
  • DownAce
  • Fichier
  • FileCloud
  • Filerio
  • FilesCdn
  • IndiShare
  • Kbagi
  • Turbobit
  • UpToBox
  • Uppit
| ZippyShare
HashesCRC32: A01C6C62, MD5: 5404646D8E25D32A3751B09A76A972E8, SHA1: 381890BD25E0EB2187CC7DCCDEC700B1B0D9FEC0, SHA256: CEDDA51474E8FC7B8F89CC0291D5FE3DB695CE2AD1FB77DC7865C2302269E4B4, ED2K: 4B055EE63590122A5D033E8A77840D74
Screenshots
screenshotscreenshotscreenshotscreenshotscreenshot
Additional Info
General
Unique ID                                : 191015865833485040172988531938664422936 (0x8FB4514D53E11B13A6494B97FA689E18)
Complete name                            : [Oyasumi]_Welcome_to_the_NHK!_24_[A01C6C62].mkv
Format                                   : Matroska
Format version                           : Version 1
File size                                : 171 MiB
Duration                                 : 23 min 39 s
Overall bit rate mode                    : Variable
Overall bit rate                         : 1 011 kb/s
Encoded date                             : UTC 2006-12-24 04:21:32
Writing application                      : mkvmerge v1.8.1 ('Little By Little') built on Nov 25 2006 16:14:30
Writing library                          : libebml v0.7.7 + libmatroska v0.8.0

Video
ID                                       : 1
Format                                   : MPEG-4 Visual
Format profile                           : Advanced Simple@L5
Format settings                          : BVOP2
Format settings, BVOP                    : 2
Format settings, QPel                    : No
Format settings, GMC                     : No warppoints
Format settings, Matrix                  : Default (H.263)
Muxing mode                              : Packed bitstream
Codec ID                                 : V_MS/VFW/FOURCC / XVID
Codec ID/Hint                            : XviD
Duration                                 : 23 min 39 s
Bit rate                                 : 846 kb/s
Width                                    : 704 pixels
Height                                   : 400 pixels
Display aspect ratio                     : 16:9
Frame rate mode                          : Constant
Frame rate                               : 23.976 (23976/1000) FPS
Color space                              : YUV
Chroma subsampling                       : 4:2:0
Bit depth                                : 8 bits
Scan type                                : Progressive
Compression mode                         : Lossy
Bits/(Pixel*Frame)                       : 0.125
Stream size                              : 143 MiB (84%)
Title                                    : [Oyasumi] Welcome to the NHK - 24 (XviD)
Writing library                          : XviD 1.2.0SMP (UTC 2006-01-08)
Default                                  : Yes
Forced                                   : No

Audio
ID                                       : 2
Format                                   : Vorbis
Format settings, Floor                   : 1
Codec ID                                 : A_VORBIS
Duration                                 : 23 min 39 s
Bit rate mode                            : Variable
Bit rate                                 : 144 kb/s
Channel(s)                               : 2 channels
Sampling rate                            : 48.0 kHz
Compression mode                         : Lossy
Stream size                              : 24.4 MiB (14%)
Title                                    : Stereo Vorbis
Writing application                      : Made with BeSweet v1.5b31
Writing library                          : libVorbis 1.1.1/1.1.2 (UTC 2005-03-04)
Language                                 : Japanese
Default                                  : Yes
Forced                                   : No
Encoded_Application/Url                  : http://DSPguru.doom9.org

Menu
00:00:00.000                             : en:Welcome to the NHK 24: Welcome to the N.H.K!
00:22:10.595                             : en:Ending

Other Files in this Torrent
[Oyasumi]_Welcome_to_the_NHK!_24_[A01C6C62].mkv
beta
Anime DDL+NZB mirror
Current Time: 09/08/2022 05:08



About/FAQs

Discord