[Oyasumi]_Welcome_to_the_NHK!_23_[615BBC06].mkv


File Size169.2 MB (177,443,338 bytes)
DownloadAnonFiles | ClickNUpload | DownloadGG | DropAPK | MultiUp
  • BdUpload
  • DownAce
  • Fichier
  • FileCloud
  • Filerio
  • FilesCdn
  • IndiShare
  • Kbagi
  • Turbobit
  • UpToBox
  • Uppit
| ZippyShare
HashesCRC32: 615BBC06, MD5: AFD18D030E48DE81AF8860F96C0997E4, SHA1: D07ABEE79E953EBF417CC3AA18EF6FF23148132C, SHA256: 82660FE6F206C331DD77ED82AE35C2D3CDE422AE3299498285126BF88E0DBB87, ED2K: 440049E22C471686908D0AB6AB773224
Screenshots
screenshotscreenshotscreenshotscreenshotscreenshot
Additional Info
General
Unique ID                                : 206147431843535275274270961741163816356 (0x9B168D1B16D9083B836E3E4717B265A4)
Complete name                            : [Oyasumi]_Welcome_to_the_NHK!_23_[615BBC06].mkv
Format                                   : Matroska
Format version                           : Version 1
File size                                : 169 MiB
Duration                                 : 23 min 49 s
Overall bit rate mode                    : Variable
Overall bit rate                         : 993 kb/s
Encoded date                             : UTC 2006-12-19 19:35:47
Writing application                      : mkvmerge v1.8.0 ('Wise Up') built on Nov 10 2006 19:41:15
Writing library                          : libebml v0.7.7 + libmatroska v0.8.0

Video
ID                                       : 1
Format                                   : MPEG-4 Visual
Format profile                           : Advanced Simple@L5
Format settings                          : BVOP2
Format settings, BVOP                    : 2
Format settings, QPel                    : No
Format settings, GMC                     : No warppoints
Format settings, Matrix                  : Default (H.263)
Muxing mode                              : Packed bitstream
Codec ID                                 : V_MS/VFW/FOURCC / XVID
Codec ID/Hint                            : XviD
Duration                                 : 23 min 49 s
Bit rate                                 : 845 kb/s
Width                                    : 704 pixels
Height                                   : 400 pixels
Display aspect ratio                     : 16:9
Frame rate mode                          : Constant
Frame rate                               : 23.976 (23976/1000) FPS
Color space                              : YUV
Chroma subsampling                       : 4:2:0
Bit depth                                : 8 bits
Scan type                                : Progressive
Compression mode                         : Lossy
Bits/(Pixel*Frame)                       : 0.125
Stream size                              : 144 MiB (85%)
Title                                    : [Oyasumi] Welcome to the NHK - 23 (XviD)
Writing library                          : XviD 1.1.2 (UTC 2006-11-01)
Default                                  : Yes
Forced                                   : No

Audio
ID                                       : 2
Format                                   : Vorbis
Format settings, Floor                   : 1
Codec ID                                 : A_VORBIS
Duration                                 : 23 min 49 s
Bit rate mode                            : Variable
Bit rate                                 : 128 kb/s
Channel(s)                               : 2 channels
Sampling rate                            : 48.0 kHz
Compression mode                         : Lossy
Stream size                              : 21.8 MiB (13%)
Title                                    : Stereo Vorbis
Writing library                          : aoTuV Beta 4.51 (UTC 2005-11-17)
Language                                 : Japanese
Default                                  : Yes
Forced                                   : No

Menu
00:00:00.000                             : en:Opening
00:01:39.975                             : en:Welcome to the NHK 23: Welcome to Misaki!
00:23:39.885                             : en:Preview

Other Files in this Torrent
[Oyasumi]_Welcome_to_the_NHK!_23_[615BBC06].mkv
beta
Anime DDL+NZB mirror
Current Time: 02/12/2021 23:34



About/FAQs

Discord