[Oyasumi]_Welcome_to_the_NHK!_01_[B17D228B].mkv


File Size171.4 MB (179,768,987 bytes)
DownloadAnonFiles | ClickNUpload | DownloadGG | DropAPK | MultiUp
  • BdUpload
  • DownAce
  • Fichier
  • FileCloud
  • Filerio
  • FilesCdn
  • IndiShare
  • Kbagi
  • Turbobit
  • UpToBox
  • Uppit
| ZippyShare
HashesCRC32: B17D228B, MD5: 65444ECBAFACF909380D1D54D68EB588, SHA1: 55CBC12DB020127222E7D74EE9BBA9A903281364, SHA256: 3CC76C24A54DBA7D84BCACBDBBA206AA33C53B5A9B81E68E9B7A6CF5CB067C1D, ED2K: 69102CD2CD6D79ABBA0CD69938B5A396
Screenshots
screenshotscreenshotscreenshotscreenshotscreenshot
Additional Info
General
Unique ID                                : 255194625723015237280340262738520623423 (0xBFFCB277494C6080978205308252C93F)
Complete name                            : [Oyasumi]_Welcome_to_the_NHK!_01_[B17D228B].mkv
Format                                   : Matroska
Format version                           : Version 1
File size                                : 171 MiB
Duration                                 : 24 min 10 s
Overall bit rate mode                    : Variable
Overall bit rate                         : 991 kb/s
Encoded date                             : UTC 2006-07-20 00:49:06
Writing application                      : mkvmerge v1.7.0 ('What Do You Take Me For') built on Apr 28 2006 17:20:19
Writing library                          : libebml v0.7.7 + libmatroska v0.8.0

Video
ID                                       : 1
Format                                   : MPEG-4 Visual
Format profile                           : Advanced Simple@L5
Format settings                          : BVOP2
Format settings, BVOP                    : 2
Format settings, QPel                    : No
Format settings, GMC                     : No warppoints
Format settings, Matrix                  : Default (H.263)
Muxing mode                              : Packed bitstream
Codec ID                                 : V_MS/VFW/FOURCC / XVID
Codec ID/Hint                            : XviD
Duration                                 : 24 min 10 s
Bit rate                                 : 859 kb/s
Width                                    : 704 pixels
Height                                   : 400 pixels
Display aspect ratio                     : 16:9
Frame rate mode                          : Constant
Frame rate                               : 23.976 (23976/1000) FPS
Color space                              : YUV
Chroma subsampling                       : 4:2:0
Bit depth                                : 8 bits
Scan type                                : Progressive
Compression mode                         : Lossy
Bits/(Pixel*Frame)                       : 0.127
Stream size                              : 149 MiB (87%)
Title                                    : [oyasumi] Welcome to the NHK - 01 (XviD)
Writing library                          : XviD 1.1.0 (UTC 2005-11-22)
Default                                  : Yes
Forced                                   : No

Audio
ID                                       : 2
Format                                   : Vorbis
Format settings, Floor                   : 1
Codec ID                                 : A_VORBIS
Duration                                 : 24 min 10 s
Bit rate mode                            : Variable
Bit rate                                 : 112 kb/s
Channel(s)                               : 2 channels
Sampling rate                            : 48.0 kHz
Compression mode                         : Lossy
Stream size                              : 19.4 MiB (11%)
Title                                    : Stereo Vorbis
Writing library                          : libVorbis 1.0 (UTC 2002-07-17)
Language                                 : Japanese
Default                                  : Yes
Forced                                   : No

Menu
00:00:00.000                             : en:Opening
00:01:39.933                             : en:Welcome to the NHK 01: Welcome to the Project
00:22:09.953                             : en:Ending
00:23:39.876                             : en:Preview

Other Files in this Torrent
[Oyasumi]_Welcome_to_the_NHK!_01_[B17D228B].mkv
beta
Anime DDL+NZB mirror
Current Time: 21/01/2022 20:54



About/FAQs

Discord