[Oyasumi]_Welcome_to_the_NHK!_18_[E4F04416].mkv


File Size170.4 MB (178,631,916 bytes)
DownloadAnonFiles | ClickNUpload | DownloadGG | DropAPK | MultiUp
  • BdUpload
  • DownAce
  • Fichier
  • FileCloud
  • Filerio
  • FilesCdn
  • IndiShare
  • Kbagi
  • Turbobit
  • UpToBox
  • Uppit
| ZippyShare
HashesCRC32: E4F04416, MD5: 772C2F77B42F51E0FA632E983A5EF5BA, SHA1: 421491FFC96B02480CB03B8908C71E18E06F9ED4, SHA256: E3AAF97AF148F3870CEE006F6436AF5FB6C08E81E4052B90621DDF7DEE5780E1, ED2K: D2F8DDD7027C2D8535FDD2ECC29CE212
Screenshots
screenshotscreenshotscreenshotscreenshotscreenshot
Additional Info
General
Unique ID                                : 197611673301258608593364682078415422195 (0x94AA9FB7B903E1648037FC9BD08B02F3)
Complete name                            : [Oyasumi]_Welcome_to_the_NHK!_18_[E4F04416].mkv
Format                                   : Matroska
Format version                           : Version 1
File size                                : 170 MiB
Duration                                 : 23 min 49 s
Overall bit rate mode                    : Variable
Overall bit rate                         : 999 kb/s
Encoded date                             : UTC 2006-11-10 19:41:48
Writing application                      : mkvmerge v1.7.0 ('What Do You Take Me For') built on Apr 28 2006 17:20:19
Writing library                          : libebml v0.7.7 + libmatroska v0.8.0

Video
ID                                       : 1
Format                                   : MPEG-4 Visual
Format profile                           : Advanced Simple@L5
Format settings                          : BVOP2
Format settings, BVOP                    : 2
Format settings, QPel                    : No
Format settings, GMC                     : No warppoints
Format settings, Matrix                  : Default (H.263)
Muxing mode                              : Packed bitstream
Codec ID                                 : V_MS/VFW/FOURCC / XVID
Codec ID/Hint                            : XviD
Duration                                 : 23 min 49 s
Bit rate                                 : 852 kb/s
Width                                    : 704 pixels
Height                                   : 400 pixels
Display aspect ratio                     : 16:9
Frame rate mode                          : Constant
Frame rate                               : 23.976 (23976/1000) FPS
Color space                              : YUV
Chroma subsampling                       : 4:2:0
Bit depth                                : 8 bits
Scan type                                : Progressive
Compression mode                         : Lossy
Bits/(Pixel*Frame)                       : 0.126
Stream size                              : 145 MiB (85%)
Title                                    : [Oyasumi] Welcome to the NHK - 18 (XviD)
Writing library                          : XviD 1.1.0 (UTC 2005-11-22)
Default                                  : Yes
Forced                                   : No

Audio
ID                                       : 2
Format                                   : Vorbis
Format settings, Floor                   : 1
Codec ID                                 : A_VORBIS
Duration                                 : 23 min 49 s
Bit rate mode                            : Variable
Bit rate                                 : 128 kb/s
Channel(s)                               : 2 channels
Sampling rate                            : 48.0 kHz
Compression mode                         : Lossy
Stream size                              : 21.8 MiB (13%)
Title                                    : Stereo Vorbis
Writing library                          : aoTuV Beta 4.51 (UTC 2005-11-17)
Language                                 : Japanese
Default                                  : Yes
Forced                                   : No

Menu
00:00:00.000                             : en:Opening
00:01:39.974                             : en:Welcome to the NHK 18: Welcome to No Future!
00:22:09.786                             : en:Ending
00:23:39.918                             : en:Preview

Other Files in this Torrent
[Oyasumi]_Welcome_to_the_NHK!_18_[E4F04416].mkv
beta
Anime DDL+NZB mirror
Current Time: 02/12/2021 23:47



About/FAQs

Discord