[Oyasumi]_Welcome_to_the_NHK!_06_[95670DA3].mkv


File Size170.7 MB (178,989,813 bytes)
DownloadAnonFiles | ClickNUpload | DownloadGG | DropAPK | MultiUp
  • BdUpload
  • DownAce
  • Fichier
  • FileCloud
  • Filerio
  • FilesCdn
  • IndiShare
  • Kbagi
  • Turbobit
  • UpToBox
  • Uppit
| ZippyShare
HashesCRC32: 95670DA3, MD5: 9638799EE425F1DA489B8F59A74428EC, SHA1: 5BB6E0C252B58018167C4D0439BBD4D1A20275D8, SHA256: 8DC0028B17A72BF060875A0C49C7146F128378D8629C4CD9C02BAC2528C31381, ED2K: 798BED60D92796D876EC0CF91F30067F
Screenshots
screenshotscreenshotscreenshotscreenshotscreenshot
Additional Info
General
Unique ID                                : 249197947071255445157091706889517732084 (0xBB79C761B18E0C48BD5F7C74389D10F4)
Complete name                            : [Oyasumi]_Welcome_to_the_NHK!_06_[95670DA3].mkv
Format                                   : Matroska
Format version                           : Version 1
File size                                : 171 MiB
Duration                                 : 23 min 50 s
Overall bit rate mode                    : Variable
Overall bit rate                         : 1 001 kb/s
Encoded date                             : UTC 2006-08-18 16:47:47
Writing application                      : mkvmerge v1.7.0 ('What Do You Take Me For') built on Apr 28 2006 17:20:19
Writing library                          : libebml v0.7.7 + libmatroska v0.8.0

Video
ID                                       : 1
Format                                   : MPEG-4 Visual
Format profile                           : Advanced Simple@L5
Format settings                          : BVOP2
Format settings, BVOP                    : 2
Format settings, QPel                    : No
Format settings, GMC                     : No warppoints
Format settings, Matrix                  : Default (H.263)
Muxing mode                              : Packed bitstream
Codec ID                                 : V_MS/VFW/FOURCC / XVID
Codec ID/Hint                            : XviD
Duration                                 : 23 min 50 s
Bit rate                                 : 853 kb/s
Width                                    : 704 pixels
Height                                   : 400 pixels
Display aspect ratio                     : 16:9
Frame rate mode                          : Constant
Frame rate                               : 23.976 (23976/1000) FPS
Color space                              : YUV
Chroma subsampling                       : 4:2:0
Bit depth                                : 8 bits
Scan type                                : Progressive
Compression mode                         : Lossy
Bits/(Pixel*Frame)                       : 0.126
Stream size                              : 145 MiB (85%)
Title                                    : [Oyasumi] Welcome to the NHK - 06 (XviD)
Writing library                          : XviD 1.1.0 (UTC 2005-11-22)
Default                                  : Yes
Forced                                   : No

Audio
ID                                       : 2
Format                                   : Vorbis
Format settings, Floor                   : 1
Codec ID                                 : A_VORBIS
Duration                                 : 23 min 50 s
Bit rate mode                            : Variable
Bit rate                                 : 128 kb/s
Channel(s)                               : 2 channels
Sampling rate                            : 48.0 kHz
Compression mode                         : Lossy
Stream size                              : 21.8 MiB (13%)
Title                                    : Stereo Vorbis
Writing library                          : aoTuV Beta 4.51 (UTC 2005-11-17)
Language                                 : Japanese
Default                                  : Yes
Forced                                   : No

Menu
00:00:00.000                             : en:Opening
00:01:39.974                             : en:Welcome to the NHK 06: Welcome to the Classroom!
00:22:09.953                             : en:Ending
00:23:39.918                             : en:Preview

Other Files in this Torrent
[Oyasumi]_Welcome_to_the_NHK!_06_[95670DA3].mkv
beta
Anime DDL+NZB mirror
Current Time: 02/12/2021 23:42



About/FAQs

Discord